Kategorie
Audiobooki488 
Filmy13280 
Fotografie160 
Gry PC1094 
GSM/PDA206 
Komiksy218 
Koncerty240 
Konsole106 
Książki/Czasopisma1305 
Muzyka10453 
Poradniki189 
Programy4423 
Seriale2356 
Sport208 
Systemy operacyjne118 
Teledyski122 
TV704 
XXX4113 

Tracker Info
Ale Torrenty
Użytkowników:18602
Dziś/wczoraj:8/45
Ostatni tydzień/miesiąc:224/1067

Torrentów:39783
Dziś/wczoraj:13/36
Ostatni tydzień/miesiąc:386/1688

Ostatni użytkownik


Klienty torrent


Zegar

Szczegóły torrenta

Zbroja Boga 3: Chiński Zodiak - Armour of God 3: Chinese Zodiac *2012* [DVDSCR XviD-DWR] [CHN] [Kino Azja]

Kategoria: Filmy
Gatunek: Akcja 

Rozmiar: 1.70 GB
Dodano: 07/01/2013
Uploader: Alex
seedów: 887
leecherów: 102

Aktualizacja Magnet Link





Kto podziękował

  • Aktualnie 0.00/5
Ocena: 0.0 na 5.0 (Głosów: 0) Na twój upload!


produkcja: Chiny, Hongkong
gatunek: Akcja
premiera: 12 grudnia 2012 (świat)
scenariusz: Jackie Chan
reżyseria: Jackie Chan

Opis:
Asian Hawk (Jackie Chan) podróżuje po świcie w poszukiwaniu zestawu mistycznych artefaktów - 12 głów zwierząt z chińskiego zodiaku wykonanych z brązu.

Obsada:
Jackie Chan ...... "Asian Hawk"
Sang-woo Kwone ...... Simon
Kenny G ...... Pilot
Xingtong Yao ...... Coco
Laura Weissbecker ...... Katherine

Screen:






Dane techniczne:

Format : AVI
Format/Info : Audio Video Interleave
File size : 1.69 GiB
Duration : 1h 53mn
Overall bit rate : 2 135 Kbps

Video:

ID : 0
Format : MPEG-4 Visual
Format profile : Advanced Simple@L5
Format settings, BVOP : 2
Format settings, QPel : No
Format settings, GMC : No warppoints
Format settings, Matrix : Default (H.263)
Muxing mode : Packed bitstream
Codec ID : XVID
Codec ID/Hint : XviD
Duration : 1h 53mn
Bit rate : 1 999 Kbps
Width : 688 pixels
Height : 288 pixels
Display aspect ratio : 2.40:1
Frame rate : 23.976 fps
Color space : YUV
Chroma subsampling : 4:2:0
Bit depth : 8 bits
Scan type : Progressive
Compression mode : Lossy
Bits/(Pixel*Frame) : 0.421
Stream size : 1.58 GiB (94%)
Writing library : XviD 64

Audio:

ID : 1
Format : AC-3
Format/Info : Audio Coding 3
Mode extension : CM (complete main)
Format settings, Endianness : Big
Codec ID : 2000
Duration : 1h 53mn
Bit rate mode : Constant
Bit rate : 128 Kbps
Channel(s) : 2 channels
Channel positions : Front: L R
Sampling rate : 48.0 KHz
Bit depth : 16 bits
Compression mode : Lossy
Stream size : 104 MiB (6%)
Alignment : Aligned on interleaves
Interleave, duration : 64 ms (1.53 video frames)
Interleave, preload duration : 192 ms
Announce URLSeedersLeechersDownloaded
udp://tracker.istole.it:80/announce2302610
http://fr33dom.h33t.com:3310/announce31515
udp://11.rarbg.com/announce83910
udp://tracker.openbittorrent.com:80000
udp://tracker.openbittorrent.com:80/announce000
udp://11.rarbg.com:80/announce2853010
udp://tracker.istole.it:80000
udp://ipv4.tracker.harry.lu:80/announce1261710
udp://tracker.publicbt.com:80/announce000
udp://10.rarbg.com/announce1241210
udp://tracker.publicbt.com:80000
http://exodus.desync.com:6969/announce000
http://exodus.desync.com/announce236
http://tracker.ex.ua/announce605
udp://fr33dom.h33t.com:3310/announce000


Ostatnia aktualizacja: 29/08/2014 19:37:07 Aktualizacja
Nazwa Rozmiar
sample.avi 12.34 MB
readme.txt 0.06 KB
Torrent downloaded from AhaShare.com.txt 0.06 KB
Chinese Zodiac (2012) DVDScr XviD DWR.avi 1.69 GB

Podobne torrenty

Zbroja Boga 3: Chiński Zodiak 3D(SBS) - Armour of God III: Chinese Zodiac 3D (EXTENDED) *2012* [mini-HD.1080p.Half.Side-by-Side.AC3.BluRay.x264-SONDA] [Lektor PL] [AT-TEAM](Seeders:89Leechers:29)
Zbroja Boga 3: Chiński Zodiak 3D(OU) - Armour of God III: Chinese Zodiac *2012* [1080p.Half.Over-Under.AC3.PLSUBBED.BluRay.x264-LEON 345](Seeders:50Leechers:314)
Zbroja Boga 3: Chinski Zodiak - Armour of God III: Chinese Zodiac (2012)[BDRip.x264.HO/U.AC3][Napisy PL][Chinese](Seeders:31Leechers:21)
Zbroja Boga 3: Chiński Zodiak 3D(OU) - Armour of God III: Chinese Zodiac 3D (EXTENDED) *2012* [1080p.Half.Over-Under.DTS-HD MA.5.1.AC3.BluRay.x264-SONDA] [Lektor i Napisy PL] [AT-TEAM](Seeders:25Leechers:45)
Zbroja Boga 3: Chinski Zodiak - Armour of God III: Chinese Zodiac (2012) [BRRip.XviD] [Napisy PL](Seeders:2Leechers:0)



Brak komentarzy...



aletorrenty.pl Webutation