Kategorie
Audiobooki488 
Filmy13317 
Fotografie160 
Gry PC1099 
GSM/PDA206 
Komiksy218 
Koncerty241 
Konsole106 
Książki/Czasopisma1331 
Muzyka10455 
Poradniki189 
Programy4432 
Seriale2385 
Sport208 
Systemy operacyjne118 
Teledyski122 
TV704 
XXX4149 

Tracker Info
Ale Torrenty
Użytkowników:18708
Dziś/wczoraj:4/26
Ostatni tydzień/miesiąc:239/1074

Torrentów:39928
Dziś/wczoraj:3/45
Ostatni tydzień/miesiąc:389/1558

Ostatni użytkownik


Klienty torrent


Zegar

Szczegóły torrenta

Snow Queen (2012) [720p BluRay x264] - nenad023

Kategoria: Filmy
Gatunek: Anime 

Rozmiar: 845.52 MB
Dodano: 19/11/2013
Uploader: nenad023
seedów: 146
leecherów: 58

Aktualizacja Magnet Link





Kto podziękował

  • Aktualnie 0.00/5
Ocena: 0.0 na 5.0 (Głosów: 0) Na twój upload!




Snow Queen 2012 720p BluRay x264 - nenad023

http://www.imdb.com/title/tt2243621/

The Snow Queen created the world of eternal winter where the polar wind cools human souls and clearness of lines obscure emotions. A girl named Gerda, her pet ferret Luta, and Orm the troll must save her brother Kai and the world.


Directors:
Vladlen Barbe, Maksim Sveshnikov
Writers:
Vladlen Barbe, Vadim Sveshnikov
Stars:
Anna Shurochkina, Ivan Okhlobystin, Galina Tyunina

General
Complete name                            : Snow Queen 2012 720p BluRay x264 - nenad023.mp4
IMDb                                     : http://www.imdb.com/title/tt2243621/
Format                                   : MPEG-4
Format profile                           : Base Media
Codec ID                                 : isom
File size                                : 845 MiB
Duration                                 : 1h 15mn
Overall bit rate mode                    : Variable
Overall bit rate                         : 1 558 Kbps
Encoded date                             : UTC 2013-11-19 12:30:50
Tagged date                              : UTC 2013-11-19 12:30:50

Video
ID                                       : 1
Format                                   : AVC
Format/Info                              : Advanced Video Codec
Format profile                           : High@L4.0
Format settings, CABAC                   : Yes
Format settings, ReFrames                : 3 frames
Codec ID                                 : avc1
Codec ID/Info                            : Advanced Video Coding
Duration                                 : 1h 15mn
Bit rate mode                            : Variable
Bit rate                                 : 1 237 Kbps
Maximum bit rate                         : 25.0 Mbps
Width                                    : 1 280 pixels
Height                                   : 536 pixels
Display aspect ratio                     : 2.40:1
Frame rate mode                          : Constant
Frame rate                               : 23.976 fps
Color space                              : YUV
Chroma subsampling                       : 4:2:0
Bit depth                                : 8 bits
Scan type                                : Progressive
Bits/(Pixel*Frame)                       : 0.075
Stream size                              : 670 MiB (79%)
Writing library                          : x264 core 129 r2245 bc13772
Encoding settings                        : cabac=1 / ref=3 / deblock=1:0:0 / analyse=0x3:0x113 / me=hex / subme=7 / psy=1 / psy_rd=1.00:0.00 / mixed_ref=1 / me_range=16 / chroma_me=1 / trellis=1 / 8x8dct=1 / cqm=0 / deadzone=21,11 / fast_pskip=1 / chroma_qp_offset=-2 / threads=3 / lookahead_threads=1 / sliced_threads=0 / nr=0 / decimate=1 / interlaced=0 / bluray_compat=0 / constrained_intra=0 / bframes=3 / b_pyramid=0 / b_adapt=1 / b_bias=0 / direct=1 / weightb=1 / open_gop=0 / weightp=2 / keyint=240 / keyint_min=24 / scenecut=40 / intra_refresh=0 / rc_lookahead=40 / rc=2pass / mbtree=1 / bitrate=1237 / ratetol=1.0 / qcomp=0.60 / qpmin=0 / qpmax=69 / qpstep=4 / cplxblur=20.0 / qblur=0.5 / vbv_maxrate=25000 / vbv_bufsize=25000 / nal_hrd=vbr / ip_ratio=1.40 / aq=1:1.00
Encoded date                             : UTC 2013-11-19 12:30:50
Tagged date                              : UTC 2013-11-19 12:32:48

Audio
ID                                       : 2
Format                                   : AAC
Format/Info                              : Advanced Audio Codec
Format profile                           : LC
Codec ID                                 : 40
Duration                                 : 1h 15mn
Bit rate mode                            : Variable
Bit rate                                 : 320 Kbps
Maximum bit rate                         : 332 Kbps
Channel(s)                               : 6 channels
Channel positions                        : Front: L C R, Side: L R, LFE
Sampling rate                            : 48.0 KHz
Compression mode                         : Lossy
Stream size                              : 174 MiB (21%)
Language                                 : English
Encoded date                             : UTC 2013-11-19 12:32:21
Tagged date                              : UTC 2013-11-19 12:32:48


Announce URLSeedersLeechersDownloaded
udp://tracker.istole.it:80/announce20210
udp://9.rarbg.com:2710/announce4273645
udp://tracker.openbittorrent.com:80/announc000
udp://tracker.publicbt.com:80/announce000
udp://open.demonii.com:1337/announce181284
http://exodus.desync.com/announce2241212
udp://11.rarbg.me:80/announce000
udp://11.rarbg.com/announce000
udp://tracker.publicbt.com:80000
http://p2pdl.com:2710/announce000
udp://tracker.btscene.eu:80/announce000
http://94.228.192.98/announcee918
http://flashtorrents.org/announce.php3543514


Ostatnia aktualizacja: 04/09/2014 11:09:23 Aktualizacja
Nazwa Rozmiar
Snow Queen 2012 720p BluRay x264 - nenad023.mp4 845.32 MB
Snow Queen 2012 720p BluRay x264 - nenad023.mp4.jpg 199.63 KB
Snow Queen 2012 720p BluRay x264 - nenad023.nfo 3.82 KB
Torrent downloaded from AhaShare.com.txt 0.06 KB
Torrent downloaded from flashtorrents.org.txt 0.04 KB
Torrent downloaded from 1337x.org.txt 0.04 KB
Torrent downloaded from silvertorrent.org.txt 0.04 KB
Torrent downloaded from torrentmafia.org.txt 0.04 KB
Torrent downloaded from aletorrenty.pl.txt 0.04 KB
Torrent downloaded from btscene.net.txt 0.03 KB
Torrent downloaded from kickass.to.txt 0.03 KB
Torrent downloaded from p2pdl.com.txt 0.03 KB

Podobne torrenty



Brak komentarzy...



aletorrenty.pl Webutation