Kategorie
Audiobooki500 
Filmy13883 
Fotografie160 
Gry PC1152 
GSM/PDA206 
Komiksy218 
Koncerty245 
Konsole108 
Książki/Czasopisma1500 
Muzyka10809 
Poradniki189 
Programy4531 
Seriale2703 
Sport213 
Systemy operacyjne118 
Teledyski124 
TV723 
XXX4489 

Tracker Info
Ale Torrenty
Użytkowników:19424
Dziś/wczoraj:0/19
Ostatni tydzień/miesiąc:127/599

Torrentów:41871
Dziś/wczoraj:0/56
Ostatni tydzień/miesiąc:370/1576

Ostatni użytkownik


Klienty torrent

Ostatnio dodane

Zegar

Szczegóły torrenta

Drogówka *2013* [DVDRiP.XViD.AC3][Film Polski][Urodziny AT]

Kategoria: Filmy
Gatunek: Kryminalny Dramat Obyczajowy

Rozmiar: 1.37 GB
Dodano: 06/06/2013
Uploader: Seed
seedów: 431
leecherów: 231

Aktualizacja Magnet Link





Kto podziękował

  • Aktualnie 0.00/5
Ocena: 0.0 na 5.0 (Głosów: 0) Na twój upload!


Rok: 2013
Czas: 1 godz. 58 min. minut
Ocena: 7,8 (27.545 glosow)
Ranking: 310. w rankingu światowym
Reżyseria: Wojciech Smarzowski
Scenariusz: Wojciech Smarzowski
Premiera polska: 1 lutego 2013
Premiera swiatowa: 14 grudnia 2012
Produkcja: Polska
Gatunek: Kryminał, Obyczajowy

Filmweb: 7.6/10
http://www.filmweb.pl/film/Drog%C3%B3wka-2013-631979

IMDB: 7.6/10
http://www.imdb.com/title/tt2577150/?ref_=sr_1

Opis:

"Drogówka" to historia siedmiu policjantów, których, poza pracą, łączy przyjaźń, imprezy, sportowe samochody
i wspólne interesy. Ich mały, zamknięty świat z pozoru działa doskonale.
Wszystko się zmienia, gdy w tajemniczych okolicznościach ginie jeden z nich.
O morderstwo zostaje oskarżony sierżant Ryszard Król (Bartek Topa).
Próbując oczyścić się z zarzutów, odkrywa prawdę o przestępczych powiązaniach na najwyższych szczeblach władzy.

Storyline:

"Highway Patrol" is the story of the seven police officers who, outside of work, friendship links, events, sports cars
and common interests. Their small, closed world of seemingly works perfectly.
Everything changes when mysteriously killed one of them.
The murder is accused Sergeant Richard King (Bartek Topa).
Trying to clear themselves of charges, he discovers the truth about the criminal connections at the highest levels of power.

Obsada/Cast:

Bartlomiej Topa ... Ryszard Król
Arkadiusz Jakubik ... Petrycki
Julia Kijowska ... Madecka
Eryk Lubos ... Banas
Robert Wabich ... Hawryluk
Jacek Braciak ... Trybus
Marcin Dorocinski ... Lisowski
Marian Dziedziel ... Golab
Agata Kulesza ... Jadzia
Izabela Kuna ... Ewa
Maciej Stuhr ... Zareba
Adam Woronowicz ... Czech
Marcin Czarnik ... Walczak
Michal Gadomski ... Wojnar
Aleksandra Domanska ... Lena

Info:

Source DVD from AT-TEAM ;]

Drogówka 2013 [DVDRiP.XViD.AC3][Polish movie][Urodziny AT].avi

Format                                   : AVI
Format/Info                              : Audio Video Interleave
File size                                : 1.37 GiB
Duration                                 : 1h 52mn
Overall bit rate                         : 1 741 Kbps
Writing application                      : VirtualDubMod 1.5.10.2 (build 2540/release)
Writing library                          : VirtualDubMod build 2540/release

Video
ID                                       : 0
Format                                   : MPEG-4 Visual
Format profile                           : Advanced Simple@L5
Format settings, BVOP                    : 2
Format settings, QPel                    : No
Format settings, GMC                     : No warppoints
Format settings, Matrix                  : Default (H.263)
Codec ID                                 : XVID
Codec ID/Hint                            : XviD
Duration                                 : 1h 52mn
Bit rate                                 : 1 284 Kbps
Width                                    : 720 pixels
Height                                   : 304 pixels
Display aspect ratio                     : 2.35:1
Frame rate                               : 25.000 fps
Color space                              : YUV
Chroma subsampling                       : 4:2:0
Bit depth                                : 8 bits
Scan type                                : Progressive
Compression mode                         : Lossy
Bits/(Pixel*Frame)                       : 0.235
Stream size                              : 1.01 GiB (74%)
Writing library                          : XviD 1.2.1 (UTC 2008-12-04)

Audio
ID                                       : 1
Format                                   : AC-3
Format/Info                              : Audio Coding 3
Mode extension                           : CM (complete main)
Format settings, Endianness              : Big
Codec ID                                 : 2000
Duration                                 : 1h 52mn
Bit rate mode                            : Constant
Bit rate                                 : 448 Kbps
Channel(s)                               : 6 channels
Channel positions                        : Front: L C R, Side: L R, LFE
Sampling rate                            : 48.0 KHz
Bit depth                                : 16 bits
Compression mode                         : Lossy
Stream size                              : 360 MiB (26%)
Alignment                                : Split accross interleaves
Interleave, duration                     : 40 ms (1.00 video frame)
Interleave, preload duration             : 500 ms

Screen's:






Trailer:






Announce URLSeedersLeechersDownloaded
http://fr33dom.h33t.com:3310/announce1531357
http://divxhunt.me/announce.php000
http://p2pdl.com:2710/announce759454
http://tracker.ex.ua/announce64565
http://www.h33t.com:3310/announce458793
http://exodus.desync.com:6969/announce392112
udp://fr33dom.h33t.com:3310/announce200201808
udp://tracker.openbittorrent.com:80000
udp://9.rarbg.com:2710/announce292373
udp://tracker.istole.it:8022210
udp://tracker.publicbt.com:80000


Ostatnia aktualizacja: 17/10/2014 20:45:07 Aktualizacja
Nazwa Rozmiar
Drogówka 2013 [DVDRiP.XViD.AC3][Polish movie][Urodziny AT].avi 1.37 GB
Drogówka 2013.jpg 129.51 KB
AT-TEAM.jpg 36.66 KB
Read iNFO.txt 2.12 KB
Ale Torrenty Team zapraszają na film !.url 0.11 KB

Podobne torrenty

Drogówka *2013* [480p] [SCR] [AC3] [XviD-sav] [Film Polski](Seeders:552Leechers:25)
Drogówka *2013* [SCR] [XviD-BiDA] [Film Polski](Seeders:425Leechers:701)
Drogówka (2013) [DVDRip XviD-BiDA][PL](Seeders:331Leechers:8)
Drogówka 2013 [1080p.x264][PL](Seeders:162Leechers:24)
Drogówka *2013* [DVDRip.RMVB] [PL](Seeders:148Leechers:11)
Drogówka 2013 [1080p.SCR.x264-JUST4][PL](Seeders:131Leechers:16)
Drogowka *2013* [DVDRip,XviD][AC3][PL](Seeders:60Leechers:11)
Drogowka.aka.Traffic.Department.2013.1080p.BluRay.x264-ELiTE (Seeders:16Leechers:157)
Drogówka [2013][SCR XviD BiDA][PL](Seeders:4Leechers:1)
Drogówka *2013* [DVDRip] [XviD] [AC3-J25] [Film PL](Seeders:3Leechers:127)



Brak komentarzy...



aletorrenty.pl Webutation