Kategorie

Tracker Info
Ale Torrenty
Użytkownicy:13382
torrentów:31326
Dziś/wczoraj:19/47
Ostatni tydzień/miesiąc:356/1650

Ostatni użytkownik


Klienty torrent


Zegar

Szczegóły torrenta

Mali Agenci 4D (3D OU) Wyścig z Czasem / Spy Kids 4D All the Time in the World (2011)[mini-HD.1080p.Over-Under.AC3.x264-LEON 345] [Dubbing PL]

Kategoria: Filmy
Gatunek: 3D Komedia Sci-Fi

Rozmiar: 3.44 GB
Dodano: 08/04/2012
Uploader: Leon345
seedów: 3
leecherów: 15

Aktualizacja Magnet Link





Kto podziękował

  • Aktualnie 0.00/5
Ocena: 0.0 na 5.0 (Głosów: 0) Na twój upload!



Film w wersji 3D Over-Under.
Do odtworzenia filmu WYMAGANY odpowiedni sprzęt (TV 3D).

Kopia mini-HD 1080p = tylko 3,44 GB

gatunek: Familijny, Komedia, Przygodowy, Akcja, Sci-Fi
premiera: 18 listopada 2011 (Polska) 18 sierpnia 2011 (Świat)

Marissa wcale nie jest zwykłą gospodynią domową. Może i jest żoną słynnego reportera, kochającą i cierpliwą matką, ale należałoby dodać do tego jeszcze kilka szczegółów… Matkowanie Rebece i Cecilowi, którzy wyraźnie sobie tego nie życzą, wystawia jej cierpliwość na ciężkie próby. Ponadto jej mąż Wilbur nie grzeszy bystrością – przez lata nie zorientował się, że jego żona jest agentką specjalną w stanie spoczynku. Świat Marissy zostaje wywrócony do góry nogami, gdy maniakalny Timekeeper grozi przejęciem planety, a ona zostaje wezwana do działania przez szefa organizacji, w której utworzono oddział Małych Agentów. Do akcji wkraczają również Rebecca i Cecil. Tym razem muszą odłożyć kłótnie na bok i razem z macochą stworzyć zespół, który przy pomocy hiper-wymyślnych gadżetów ocali świat, a skutecznością zawstydzi nawet Jamesa Bonda.

Kopie 3D SBS(OU) mini-HD, to kopie specjalistyczne o dużej rozdzielczości (1920 x 1080 ), które mimo niewielkiego ciężaru (w MB) zachowują wysoką jakość.

Szczególnie polecam tym, którzy chcą zaoszczędzić czas i przestrzeń na dysku.

Taką kopię można także bez problemu nagrać na zwykłą płytę DVD lub przenieś na zewnętrzną pamięć.

Ważne jest również to, że tą wersję mogą obejrzeć osoby, których sprzęt ma ograniczenia w postaci obsługi tylko formatu FAT, jak wiadomo taki format obsłuży filmy, które mają maksymalnie 4GB, więc w tym przypadku ta wersja jest też dla nich.

TĄ KOPIE WYKONAŁ LEON 345 SPECJALNIE DLA WAS

General
Complete name : E:FilmyFilmy 3DSBS 3DSPYKIDS4_3D (Leon 345)SPYKIDS4_3D (Leon 345) .mkv
Format : Matroska
File size : 3.44 GiB
Duration : 1h 24mn
Overall bit rate : 5 849 Kbps
Movie name : SPYKIDS4_3D_BLUEBIRD.Title34.Bluray3DRip
Encoded date : UTC 2012-04-07 22:04:13
Writing application : mkvmerge v5.2.1 ('A Far Off Place') built on Jan 2 2012 23:21:10
Writing library : libebml v1.2.3 + libmatroska v1.3.0

Video
ID : 1
Format : AVC
Format/Info : Advanced Video Codec
Format profile : High@L5.1
Format settings, CABAC : Yes
Format settings, ReFrames : 2 frames
Muxing mode : Container profile=Unknown@5.1
Codec ID : V_MPEG4/ISO/AVC
Duration : 1h 24mn
Bit rate : 5 285 Kbps
Width : 1 920 pixels
Height : 1 080 pixels
Display aspect ratio : 16:9
Frame rate : 25.000 fps
Original frame rate : 23.976 fps
Resolution : 8 bits
Colorimetry : 4:2:0
Scan type : Progressive
Bits/(Pixel*Frame) : 0.102
Stream size : 3.11 GiB (90%)
Writing library : x264 core
Color primaries : BT.709-5, BT.1361, IEC 61966-2-4, SMPTE RP177
Transfer characteristics : BT.709-5, BT.1361
Matrix coefficients : BT.709-5, BT.1361, IEC 61966-2-4 709, SMPTE RP177

Audio
ID : 2
Format : AC-3
Format/Info : Audio Coding 3
Codec ID : A_AC3
Duration : 1h 24mn
Bit rate mode : Constant
Bit rate : 448 Kbps
Channel(s) : 6 channels
Channel positions : Front: L C R, Side: L R, LFE
Sampling rate : 48.0 KHz
Video delay : 300ms
Stream size : 270 MiB (8%)
Language : Polish

Menu
00:00:00.000 : en:(01)00:00:00:000
00:06:43.778 : en:(02)00:06:43:778
00:08:59.288 : en:(03)00:08:59:288
00:15:08.490 : en:(04)00:15:08:490
00:20:19.551 : en:(05)00:20:19:551
00:29:47.118 : en:(06)00:29:47:118
00:34:02.081 : en:(07)00:34:02:081
00:42:37.680 : en:(08)00:42:37:680
00:47:06.031 : en:(09)00:47:06:031
00:52:49.916 : en:(10)00:52:49:916
00:58:30.256 : en:(11)00:58:30:256
01:04:22.984 : en:(12)01:04:22:984
01:09:17.570 : en:(13)01:09:17:570
01:16:46.226 : en:(14)01:16:46:226
01:22:36.451 : en:(15)01:22:36:451
01:27:43.675 : en:(16)01:27:43:675

Pobrałeś???
Seed-uj!!!


Życze wszystkim spokojnych świąt Wielkanocnych i mokrego Dyngusa
LEON 345
Announce URLSeedersLeechersDownloaded
http://i.bandito.org/announce000
http://exodus.desync.com:6969/announce000
http://exodus.desync.com/announce130
http://tracker.tekfu.tk/announce000
http://torrentforce.org:2710/announce000
http://tracker.ex.ua/announce000
http://tracker.tfile.me/announce010
http://exodus.desync.com:6969/announce2000
http://exodus.desync.com:6969/announce3110
http://exodus.desync.com:6969/announce6050
http://exodus.desync.com:6969/announce4000
http://exodus.desync.com:6969/announce51572


Ostatnia aktualizacja: 28/02/2014 06:44:48 Aktualizacja
Nazwa Rozmiar
SPYKIDS4_3D (Leon 345) .mkv 3.44 GB
40509676072197234117.jpg 112.13 KB
Poradnik Leona do filmów 3D.txt 14.73 KB
info.url 0.11 KB

Podobne torrenty



Brak komentarzy...



aletorrenty.pl Webutation