Kategorie
Audiobooki480 
Filmy12572 
Fotografie143 
Gry PC1008 
GSM/PDA186 
Komiksy217 
Koncerty233 
Konsole76 
Książki/Czasopisma1162 
Muzyka10055 
Poradniki184 
Programy4066 
Seriale1949 
Sport206 
Systemy operacyjne116 
Teledyski121 
TV671 
XXX3759 

Tracker Info
Ale Torrenty
Użytkowników:16897
Dziś/wczoraj:8/27
Ostatni tydzień/miesiąc:208/806

Torrentów:37204
Dziś/wczoraj:8/40
Ostatni tydzień/miesiąc:306/1083

Ostatni użytkownik


Klienty torrent


Zegar

Szczegóły torrenta

Blade - Mroczna Trójca / Blade Trinity (2004) [DVDRip XviD AC3][Lektor PL][AT-Team]

Kategoria: Filmy
Gatunek: Akcja Horror 

Rozmiar: 1.53 GB
Dodano: 07/05/2013
Uploader: Alex
seedów: 47
leecherów: 298

Aktualizacja Magnet Link





Kto podziękował

  • Aktualnie 0.00/5
Ocena: 0.0 na 5.0 (Głosów: 0) Na twój upload!


gatunek: Horror, Akcja
produkcja: USA
premiera: 28 stycznia 2005 (Polska) 7 grudnia 2004 (świat)
reżyseria: David S. Goyer
scenariusz: David S. Goyer, Marv Wolfman, Gene Colan

Filmweb: http://www.filmweb.pl/Blade.Mroczna.Trojca

Opis:

lade musi zmierzyć się z Draculą, którego wampiry wskrzesiły, by pokonał ich największego wroga. Bohater dołącza do Nocnych Łowców - młodej i niedoświadczonej grupy, eliminującej krwiopijców.

Obsada:

Wesley Snipes - Blade
Kris Kristofferson - Abraham Whistler
Jessica Biel - Abigail Whistler
Ryan Reynolds - Hannibal King

Info:

Format                                   : AVI
Format/Info                              : Audio Video Interleave
Format profile                           : OpenDML
File size                                : 1.53 GiB
Duration                                 : 1h 48mn
Overall bit rate                         : 2 019 Kbps
Writing application                      : Lavf52.94.0

Video
ID                                       : 0
Format                                   : MPEG-4 Visual
Format profile                           : Simple@L3
Format settings, BVOP                    : No
Format settings, QPel                    : No
Format settings, GMC                     : No warppoints
Format settings, Matrix                  : Default (H.263)
Codec ID                                 : XVID
Codec ID/Hint                            : XviD
Duration                                 : 1h 48mn
Bit rate                                 : 1 687 Kbps
Width                                    : 720 pixels
Height                                   : 406 pixels
Display aspect ratio                     : 16:9
Frame rate                               : 25.000 fps
Color space                              : YUV
Chroma subsampling                       : 4:2:0
Bit depth                                : 8 bits
Scan type                                : Progressive
Compression mode                         : Lossy
Bits/(Pixel*Frame)                       : 0.231
Stream size                              : 1.28 GiB (84%)
Writing library                          : XviD 1.2.1 (UTC 2008-12-04)

Audio
ID                                       : 1
Format                                   : AC-3
Format/Info                              : Audio Coding 3
Codec ID                                 : 00001000-0000-0020-8000-00AA00389B71
Duration                                 : 1h 48mn
Bit rate                                 : 320 Kbps
Channel(s)                               : 6 channels
Channel positions                        : Front: L C R, Side: L R, LFE
Sampling rate                            : 48.0 KHz
Bit depth                                : 16 bits
Compression mode                         : Lossy
Stream size                              : 248 MiB (16%)
Interleave, duration                     : 32 ms (0.80 video frame)

Screen:






Announce URLSeedersLeechersDownloaded
http://fr33dom.h33t.com:3310/announce100
http://tracker.ex.ua/announce83146
http://www.h33t.com:3310/announce5110
http://exodus.desync.com:6969/announce30106
udp://fr33dom.h33t.com:3310/announce2329120
udp://tracker.btscene.eu:80/announce000
udp://tracker.1337x.org:80/announce000
udp://tracker.openbittorrent.com:80000
udp://9.rarbg.com:2710/announce73215
udp://tracker.istole.it:80000
udp://tracker.publicbt.com:80000


Ostatnia aktualizacja: 27/07/2014 21:04:56 Aktualizacja
Nazwa Rozmiar
Blade - Mroczna Trójca Blade Trinity (2004) [DVDRip XviD AC3][Lektor PL][AT-Team].avi 1.53 GB
...AT-TEAM.jpg 36.66 KB
...Read iNFO.txt 2.06 KB
... Masz zaproszenie.url 0.11 KB

Podobne torrenty



Brak komentarzy...



aletorrenty.pl Webutation