Kategorie
Audiobooki500 
Filmy13883 
Fotografie160 
Gry PC1152 
GSM/PDA206 
Komiksy218 
Koncerty245 
Konsole108 
Książki/Czasopisma1500 
Muzyka10790 
Poradniki189 
Programy4531 
Seriale2701 
Sport213 
Systemy operacyjne118 
Teledyski124 
TV723 
XXX4489 

Tracker Info
Ale Torrenty
Użytkowników:19423
Dziś/wczoraj:18/16
Ostatni tydzień/miesiąc:128/599

Torrentów:41850
Dziś/wczoraj:35/41
Ostatni tydzień/miesiąc:355/1567

Ostatni użytkownik


Klienty torrent


Zegar

Szczegóły torrenta

Pokój 1408 - Room 1408 (2007) [DVDRip XviD AC3]ENG][Lektor PL][Urodzny AT]

Kategoria: Filmy
Gatunek: Horror 

Rozmiar: 1.44 GB
Dodano: 16/06/2013
Uploader: Alex
seedów: 266
leecherów: 429

Aktualizacja Magnet Link





Kto podziękował

  • Aktualnie 0.00/5
Ocena: 0.0 na 5.0 (Głosów: 0) Na twój upload!


gatunek: Horror
produkcja: USA
premiera: 23 listopada 2007 (Polska) 12 czerwca 2007 (świat)
reżyseria: Mikael Håfström
scenariusz: Scott Alexander, Matt Greenberg, Larry Karaszewski

Filmweb: http://www.filmweb.pl/1408

Opis:

Adaptacja opowiadania Stephena Kinga. Mike Enslin, autor książek o zjawiskach paranormalnych, próbuje podważyć mit pokoju nr 1408.

Obsada:

John Cusack - Mike Enslin
Samuel L. Jackson - Gerald Olin
Mary McCormack - Lily Enslin
Tony Shalhoub - Sam Farrell

Info:

Format                                   : AVI
Format/Info                              : Audio Video Interleave
Format profile                           : OpenDML
File size                                : 1.44 GiB
Duration                                 : 1h 39mn
Overall bit rate                         : 2 063 Kbps
Writing application                      : Lavf52.94.0

Video
ID                                       : 0
Format                                   : MPEG-4 Visual
Format profile                           : Simple@L3
Format settings, BVOP                    : No
Format settings, QPel                    : No
Format settings, GMC                     : No warppoints
Format settings, Matrix                  : Default (H.263)
Codec ID                                 : XVID
Codec ID/Hint                            : XviD
Duration                                 : 1h 39mn
Bit rate                                 : 1 730 Kbps
Width                                    : 768 pixels
Height                                   : 576 pixels
Display aspect ratio                     : 4:3
Frame rate                               : 25.000 fps
Color space                              : YUV
Chroma subsampling                       : 4:2:0
Bit depth                                : 8 bits
Scan type                                : Progressive
Compression mode                         : Lossy
Bits/(Pixel*Frame)                       : 0.156
Stream size                              : 1.21 GiB (84%)
Writing library                          : XviD 1.2.1 (UTC 2008-12-04)

Audio
ID                                       : 1
Format                                   : AC-3
Format/Info                              : Audio Coding 3
Codec ID                                 : 00001000-0000-0020-8000-00AA00389B71
Duration                                 : 1h 39mn
Bit rate                                 : 320 Kbps
Channel(s)                               : 6 channels
Channel positions                        : Front: L C R, Side: L R, LFE
Sampling rate                            : 48.0 KHz
Bit depth                                : 16 bits
Compression mode                         : Lossy
Stream size                              : 229 MiB (16%)
Interleave, duration                     : 32 ms (0.80 video frame)

Screen:






Announce URLSeedersLeechersDownloaded
http://fr33dom.h33t.com:3310/announce126208940
http://divxhunt.me/announce.php000
http://p2pdl.com:2710/announce100
http://tracker.ex.ua/announce50102
http://www.h33t.com:3310/announce123221932
http://exodus.desync.com:6969/announce110422
udp/fr33dom.h33t.com:3310/announce000
udp/tracker.openbittorrent.com:80000
udp/9.rarbg.com:2710/announce000
udp/tracker.istole.it:80000
udp/tracker.publicbt.com:80000


Ostatnia aktualizacja: 08/10/2014 06:11:50 Aktualizacja
Nazwa Rozmiar
Pokój 1408 - Room 1408 (2007) [DVDRip XviD AC3]ENG][Lektor PL][AT-Team].avi 1.44 GB
...AT-TEAM.jpg 36.66 KB
...Read iNFO.txt 2.06 KB
... Masz zaproszenie.url 0.11 KB
...Torrent downloaded from Alex torrents at divxhunt.me.txt 0.08 KB

Podobne torrenty



Brak komentarzy...



aletorrenty.pl Webutation