Kategorie
Audiobooki490 
Filmy13383 
Fotografie160 
Gry PC1101 
GSM/PDA206 
Komiksy218 
Koncerty241 
Konsole106 
Książki/Czasopisma1343 
Muzyka10486 
Poradniki189 
Programy4450 
Seriale2405 
Sport210 
Systemy operacyjne118 
Teledyski122 
TV705 
XXX4163 

Tracker Info
Ale Torrenty
Użytkowników:18769
Dziś/wczoraj:10/25
Ostatni tydzień/miesiąc:212/1062

Torrentów:40096
Dziś/wczoraj:6/73
Ostatni tydzień/miesiąc:357/1541

Ostatni użytkownik


Klienty torrent


Zegar

Szczegóły torrenta

W tajnej służbie Jej Królewskiej Mości - On Her Majesty's Secret Service (1969) [DVDRip XviD AC3][ENG][Lektor PL][AT-Team]

Kategoria: Filmy
Gatunek: Sensacyjny 

Rozmiar: 2.60 GB
Dodano: 03/07/2013
Uploader: Alex
seedów: 1
leecherów: 0

Aktualizacja Magnet Link





Kto podziękował

  • Aktualnie 0.00/5
Ocena: 0.0 na 5.0 (Głosów: 0) Na twój upload!


gatunek: Sensacyjny
produkcja: Wielka Brytania
premiera: 18 grudnia 1990 (Polska) 13 grudnia 1969 (świat)
reżyseria: Peter R. Hunt
scenariusz: Richard Maibaum

Filmweb: http://www.filmweb.pl/W.Tajnej.Sluzbie.Jej.Krolewskiej.Mosci

Opis:

Agent 007 musi zniszczyć niebezpieczną organizację przestępczą WIDMO

Obsada:

George Lazenby - James Bond
Diana Rigg - Tracy Di Vicenzo
Telly Savalas - Ernst Stavro Blofeld
Gabriele Ferzetti - Marc Ange Draco

Info:

Format                                   : AVI
Format/Info                              : Audio Video Interleave
Format profile                           : OpenDML
File size                                : 2.60 GiB
Duration                                 : 2h 16mn
Overall bit rate                         : 2 728 Kbps
Writing application                      : Lavf52.94.0

Video
ID                                       : 0
Format                                   : MPEG-4 Visual
Format profile                           : Simple@L3
Format settings, BVOP                    : No
Format settings, QPel                    : No
Format settings, GMC                     : No warppoints
Format settings, Matrix                  : Default (H.263)
Codec ID                                 : XVID
Codec ID/Hint                            : XviD
Duration                                 : 2h 16mn
Bit rate                                 : 2 398 Kbps
Width                                    : 1 024 pixels
Height                                   : 576 pixels
Display aspect ratio                     : 16:9
Frame rate                               : 25.000 fps
Color space                              : YUV
Chroma subsampling                       : 4:2:0
Bit depth                                : 8 bits
Scan type                                : Progressive
Compression mode                         : Lossy
Bits/(Pixel*Frame)                       : 0.163
Stream size                              : 2.28 GiB (88%)
Writing library                          : XviD 1.2.1 (UTC 2008-12-04)

Audio
ID                                       : 1
Format                                   : AC-3
Format/Info                              : Audio Coding 3
Codec ID                                 : 00001000-0000-0020-8000-00AA00389B71
Duration                                 : 2h 16mn
Bit rate                                 : 320 Kbps
Channel(s)                               : 6 channels
Channel positions                        : Front: L C R, Side: L R, LFE
Sampling rate                            : 48.0 KHz
Bit depth                                : 16 bits
Compression mode                         : Lossy
Stream size                              : 312 MiB (12%)
Interleave, duration                     : 32 ms (0.80 video frame)

Screen:






Announce URLSeedersLeechersDownloaded
http://fr33dom.h33t.com:3310/announce100
http://divxhunt.me/announce.php000
http://p2pdl.com:2710/announce000
http://tracker.ex.ua/announce000
http://www.h33t.com:3310/announce000
http://exodus.desync.com:6969/announce000
udp/fr33dom.h33t.com:3310/announce000
udp/tracker.openbittorrent.com:80000
udp/9.rarbg.com:2710/announce000
udp/tracker.istole.it:80000
udp/tracker.publicbt.com:80000


Ostatnia aktualizacja: 03/07/2013 23:56:51 Aktualizacja
Nazwa Rozmiar
W tajnej służbie JKM - On Her Majesty's Secret Service (1969) [DVDRip XviD AC3][ENG][Lektor PL][AT-Team].avi 2.60 GB
...AT-TEAM.jpg 36.66 KB
...Read iNFO.txt 2.06 KB
... Masz zaproszenie.url 0.11 KB
...Torrent downloaded from Alex torrents at divxhunt.me.txt 0.08 KB

Podobne torrenty

W tajnej służbie Jej Królewskiej Mości - On Her Majesty's Secret Service *1969* [720p.BDRip.XviD.AC3-ELiTE] [Lektor PL](Seeders:10Leechers:16)
James Bond 007: W tajnej służbie Jej Królewskiej Mości - On Her Majesty's Secret Service (1969) [BDRip.1080p.DTS.HighCode] [Napisy PL](Seeders:6Leechers:19)



Brak komentarzy...



aletorrenty.pl Webutation