Kategorie
Audiobooki480 
Filmy12867 
Fotografie160 
Gry PC1040 
GSM/PDA206 
Komiksy217 
Koncerty237 
Konsole104 
Książki/Czasopisma1186 
Muzyka10313 
Poradniki189 
Programy4242 
Seriale2170 
Sport206 
Systemy operacyjne116 
Teledyski122 
TV690 
XXX3949 

Tracker Info
Ale Torrenty
Użytkowników:17658
Dziś/wczoraj:0/25
Ostatni tydzień/miesiąc:182/659

Torrentów:38494
Dziś/wczoraj:1/128
Ostatni tydzień/miesiąc:507/1262

Ostatni użytkownik


Klienty torrent

Ostatnio dodane

Zegar

Szczegóły torrenta

Człowiek o żelaznych pięściach - The Man with the Iron Fists (2012)[BRRip.x264.DTS][Multi Audio/Lektor PL][English]

Kategoria: Filmy
Gatunek: Akcja 

Rozmiar: 6.77 GB
Dodano: 10/07/2013
Uploader: alE13
seedów: 3
leecherów: 96

Aktualizacja Magnet Link





Kto podziękował

  • Aktualnie 0.00/5
Ocena: 0.0 na 5.0 (Głosów: 0) Na twój upload!


gatunek:  Akcja
produkcja: Hongkong USA
premiera: 2 listopada 2012
reżyseria: RZA
scenariusz: RZA, Eli Roth
muzyka: Howard Drossin
zdjęcia: Chi Ying Chan
czas: 01:35:16

opis:

On the hunt for a fabled treasure of gold, a band of warriors, assassins, and a rogue British soldier descend
upon a village in feudal China, where a humble blacksmith looks to defend himself and his fellow villagers.

W jednej z chińskich wiosek pracuje czarnoskóry Kowal (RZA). Planuje uzbierać wystarczającą ilość pieniędzy,
by móc opuścić wioskę ze swoją ukochaną Lady Silk (Jamie Chung), pracującą w burdelu Madame Blossom (Lucy Liu).
Okazji do zarobku ma wiele, bowiem w wiosce istnieje kilka wrogich klanów zaopatrujących się u niego w broń.
Kiedy przywódca jednego z nich zostaje zamordowany, wybucha krwawa wojna. Gdy konflikt przybiera na sile w okolicy
pojawia się tajemniczy Jack Knife (Russell Crowe). Tymczasem do wioski zmierza rządowy transport złota, który
wielu chciałoby przejąć.

audio:










obsada:

RZA ...  Blacksmith
Rick Yune ...  Zen Yi, The X-Blade
Russell Crowe ... Jack Knife
Lucy Liu ...  Madam Blossom

dane techniczne:

The Man with the Iron Fists (2012)-alE13.mkv
Format                                   : Matroska
Format version                           : Version 4 / Version 2
File size                                : 6.74 GiB
Duration                                 : 1h 35mn
Overall bit rate                         : 10.1 Mbps
Movie name                               : The Man with the Iron Fists (2012)_Rip.-alE13
Encoded date                             : UTC 2013-07-10 16:22:09
Writing application                      : mkvmerge v6.3.0
Writing library                          : libebml v1.3.0 + libmatroska v1.4.0

Video
ID                                       : 1
Format                                   : AVC
Format/Info                              : Advanced Video Codec
Format profile                           : Baseline@L3.1
Format settings, CABAC                   : No
Format settings, ReFrames                : 1 frame
Format settings, GOP                     : M=1, N=12
Codec ID                                 : V_MPEG4/ISO/AVC
Duration                                 : 1h 35mn
Bit rate                                 : 3 806 Kbps
Width                                    : 1 280 pixels
Height                                   : 720 pixels
Display aspect ratio                     : 16:9
Frame rate mode                          : Constant
Frame rate                               : 23.976 fps
Color space                              : YUV
Chroma subsampling                       : 4:2:0
Bit depth                                : 8 bits
Scan type                                : Progressive
Bits/(Pixel*Frame)                       : 0.172
Stream size                              : 2.53 GiB (38%)
Language                                 : English

Audio #1
ID                                       : 2
Format                                   : DTS
Format/Info                              : Digital Theater Systems
Mode                                     : 16
Format settings, Endianness              : Big
Codec ID                                 : A_DTS
Duration                                 : 1h 35mn
Bit rate mode                            : Constant
Bit rate                                 : 768 Kbps
Channel(s)                               : 6 channels
Channel positions                        : Front: L C R, Side: L R, LFE
Sampling rate                            : 48.0 KHz
Bit depth                                : 24 bits
Compression mode                         : Lossy
Stream size                              : 523 MiB (8%)
Title                                    : The Man with the Iron Fists (2012)_Rip.-alE13_DTS
Language                                 : Polish

Audio #2
ID                                       : 3
Format                                   : DTS
Format/Info                              : Digital Theater Systems
Mode                                     : 16
Format settings, Endianness              : Big
Codec ID                                 : A_DTS
Duration                                 : 1h 35mn
Bit rate mode                            : Constant
Bit rate                                 : 1 509 Kbps
Channel(s)                               : 6 channels
Channel positions                        : Front: L C R, Side: L R, LFE
Sampling rate                            : 48.0 KHz
Bit depth                                : 24 bits
Compression mode                         : Lossy
Stream size                              : 1.00 GiB (15%)
Title                                    : The Man with the Iron Fists (2012)_Rip.-alE13_DTS
Language                                 : English

Audio #3
ID                                       : 4
Format                                   : DTS
Format/Info                              : Digital Theater Systems
Mode                                     : 16
Format settings, Endianness              : Big
Codec ID                                 : A_DTS
Duration                                 : 1h 35mn
Bit rate mode                            : Constant
Bit rate                                 : 768 Kbps
Channel(s)                               : 6 channels
Channel positions                        : Front: L C R, Side: L R, LFE
Sampling rate                            : 48.0 KHz
Bit depth                                : 24 bits
Compression mode                         : Lossy
Stream size                              : 523 MiB (8%)
Title                                    : The Man with the Iron Fists (2012)_Rip.-alE13_DTS
Language                                 : Spanish

Audio #4
ID                                       : 5
Format                                   : DTS
Format/Info                              : Digital Theater Systems
Mode                                     : 16
Format settings, Endianness              : Big
Codec ID                                 : A_DTS
Duration                                 : 1h 35mn
Bit rate mode                            : Constant
Bit rate                                 : 768 Kbps
Channel(s)                               : 6 channels
Channel positions                        : Front: L C R, Side: L R, LFE
Sampling rate                            : 48.0 KHz
Bit depth                                : 24 bits
Compression mode                         : Lossy
Stream size                              : 523 MiB (8%)
Title                                    : The Man with the Iron Fists (2012)_Rip.-alE13_DTS
Language                                 : Portuguese

Audio #5
ID                                       : 6
Format                                   : DTS
Format/Info                              : Digital Theater Systems
Mode                                     : 16
Format settings, Endianness              : Big
Codec ID                                 : A_DTS
Duration                                 : 1h 35mn
Bit rate mode                            : Constant
Bit rate                                 : 768 Kbps
Channel(s)                               : 6 channels
Channel positions                        : Front: L C R, Side: L R, LFE
Sampling rate                            : 48.0 KHz
Bit depth                                : 24 bits
Compression mode                         : Lossy
Stream size                              : 523 MiB (8%)
Title                                    : The Man with the Iron Fists (2012)_Rip.-alE13_DTS
Language                                 : Czech

Audio #6
ID                                       : 7
Format                                   : DTS
Format/Info                              : Digital Theater Systems
Mode                                     : 16
Format settings, Endianness              : Big
Codec ID                                 : A_DTS
Duration                                 : 1h 35mn
Bit rate mode                            : Constant
Bit rate                                 : 768 Kbps
Channel(s)                               : 6 channels
Channel positions                        : Front: L C R, Side: L R, LFE
Sampling rate                            : 48.0 KHz
Bit depth                                : 24 bits
Compression mode                         : Lossy
Stream size                              : 523 MiB (8%)
Title                                    : The Man with the Iron Fists (2012)_Rip.-alE13_DTS
Language                                 : Thai

Audio #7
ID                                       : 8
Format                                   : DTS
Format/Info                              : Digital Theater Systems
Mode                                     : 16
Format settings, Endianness              : Big
Codec ID                                 : A_DTS
Duration                                 : 1h 35mn
Bit rate mode                            : Constant
Bit rate                                 : 768 Kbps
Channel(s)                               : 6 channels
Channel positions                        : Front: L C R, Side: L R, LFE
Sampling rate                            : 48.0 KHz
Bit depth                                : 24 bits
Compression mode                         : Lossy
Stream size                              : 523 MiB (8%)
Title                                    : The Man with the Iron Fists (2012)_Rip.-alE13_DTS
Language                                 : Turkish

Text
ID                                       : 9
Format                                   : UTF-8
Codec ID                                 : S_TEXT/UTF8
Codec ID/Info                            : UTF-8 Plain Text
Title                                    : SDH
Language                                 : English

Menu
00:00:00.000                             : en:00:00:00.000
00:06:19.420                             : en:00:06:19.420
00:10:52.568                             : en:00:10:52.568
00:16:46.046                             : en:00:16:46.046
00:19:25.664                             : en:00:19:25.664
00:24:09.406                             : en:00:24:09.406
00:27:41.910                             : en:00:27:41.910
00:31:51.993                             : en:00:31:51.993
00:38:35.438                             : en:00:38:35.438
00:41:54.303                             : en:00:41:54.303
00:48:14.516                             : en:00:48:14.516
00:54:44.906                             : en:00:54:44.906
01:00:31.252                             : en:01:00:31.252
01:05:21.375                             : en:01:05:21.375
01:10:49.787                             : en:01:10:49.787
01:13:59.017                             : en:01:13:59.017
01:18:26.243                             : en:01:18:26.243
01:21:29.843                             : en:01:21:29.843
01:25:16.444                             : en:01:25:16.444
01:28:56.038                             : en:01:28:56.038
Announce URLSeedersLeechersDownloaded
http://fr33dom.h33t.com:3310/announce100
http://divxhunt.me/announce.php000
http://pimp4003-torrents.me:2710/announce.php1440
http://p2pdl.com:2710/announce000
http://www.h33t.com:3310/announce1500
udp://fr33dom.h33t.com:3310/announce000
udp://tracker.openbittorrent.com:80000
udp://9.rarbg.com:2710/announce02119
udp://tracker.istole.it:80000
udp://tracker.publicbt.com:80000


Ostatnia aktualizacja: 03/06/2014 06:47:15 Aktualizacja
Nazwa Rozmiar
The Man with the Iron Fists (2012)-alE13.mkv 6.74 GB
sample.mkv 30.40 MB
Audio.jpg 205.20 KB
txt.jpg 161.31 KB
2.jpg 140.91 KB
Nostalgie1.jpg 129.67 KB
___alE13___2013-07-10-18h59m26s103.jpg 84.24 KB
___alE13___2013-07-10-19h00m07s255.jpg 74.08 KB
___alE13___2013-07-10-18h55m40s146.jpg 66.56 KB
___alE13___2013-07-10-18h59m35s189.jpg 65.57 KB
___alE13___2013-07-10-18h59m16s222.jpg 49.38 KB
Torrent downloaded from alE13 torrents at BTScene.org.txt 0.12 KB

Podobne torrenty

Wałęsa. Człowiek z nadziei *2013* [DVDRip] [XviD-BiDA] [PL] (Seeders:695Leechers:62)
Człowiek ze stali - Man of Steel *2013* [BRRip.XviD.AC3-sav] [Lektor PL](Seeders:483Leechers:627)
Człowiek na krawędzi - Man on a Ledge *2012* [DVDRip] [XviD] [Napisy PL](Seeders:305Leechers:190)
Człowiek ze stali - Man of Steel *2013* [BRRip.XviD.AC3-KiT] [Napisy PL](Seeders:287Leechers:234)
Człowiek Tai Chi - Man of Tai Chi *2013* [DVDRip.XviD.AC3-azjatycki] [5:1] [Lektor PL] [AT-TEAM](Seeders:231Leechers:206)
Człowiek ze stali - Man of Steel *2013* [480p] [BRRip.XviD-UNDERCOVER] [AC3] [5:1] [Lektor PL](Seeders:219Leechers:652)
Człowiek z Cold Rock / The Tall Man *2012* [BRRip] [XviD] [AC-3] [ENG] [Lektor PL](Seeders:185Leechers:319)
Był sobie człowiek odc 01-26 *1978* [DVDRip XviD] [DUBBING PL](Seeders:169Leechers:277)
Czysta Nauka: Katastrofy wywołane przez człowieka - Naked Science: Man-Made Disasters *2009* [TVRip] [XviD-traveller] [Lektor PL](Seeders:162Leechers:199)
Człowiek z kosmosu - Earthbound *2012* [WEB-DL.XviD-GHW] [Lektor PL](Seeders:137Leechers:4)



Brak komentarzy...



aletorrenty.pl Webutation