Kategorie
Audiobooki488 
Filmy13357 
Fotografie160 
Gry PC1099 
GSM/PDA206 
Komiksy218 
Koncerty241 
Konsole106 
Książki/Czasopisma1336 
Muzyka10457 
Poradniki189 
Programy4444 
Seriale2400 
Sport208 
Systemy operacyjne118 
Teledyski122 
TV705 
XXX4163 

Tracker Info
Ale Torrenty
Użytkowników:18737
Dziś/wczoraj:2/14
Ostatni tydzień/miesiąc:217/1058

Torrentów:40017
Dziś/wczoraj:0/49
Ostatni tydzień/miesiąc:341/1492

Ostatni użytkownik


Klienty torrent


Zegar

Szczegóły torrenta

Harold i Kumar: Spalone święta 3D(OU) - A Very Harold & Kumar 3D Christmas *2011* [mini-HD.1080p.Over-Under.AC3.BluRay.x264-SONDA] [Lektor PL] [AT-TEAM]

Kategoria: Filmy
Gatunek: 3D Komedia 

Rozmiar: 4.00 GB
Dodano: 28/12/2013
Uploader: sonda
seedów: 206
leecherów: 335

Aktualizacja Magnet Link





Kto podziękował

  • Aktualnie 0.00/5
Ocena: 0.0 na 5.0 (Głosów: 0) Na twój upload!


Film w wersji 3D Over-Under.
Do odtworzenia filmu WYMAGANY odpowiedni sprzęt (TV 3D)
==================================================


Kopia mini-HD 1080p = 3,99 GB

gatunek: Komedia
produkcja: USA
premiera: 4 listopada 2011 (świat)
reżyseria: Todd Strauss-Schulson
scenariusz: Hayden Schlossberg,Jon Hurwitz

Obsada:
John Cho - Harold Lee
Kal Penn - Kumar Patel
Isabella Gielniak - Caren
Neil Patrick Harris
Patton Oswalt - Mikołaj ze sklepu
Thomas Lennon - Todd
Tristan Canning - Noah
Danny Trejo - Pan Perez

Opis:
Kumar Patel (Kal Penn), Harold Lee (John Cho) i Neil Patrick Harris, sieją spory zamęt przed zbliżającymi się świętami Bożego Narodzenia. Bohaterowie nie utrzymują ze sobą kontaktu od kilku lat. Otóż Harold przygotowuje się na przyjęcie w swoim domu rodziny apodyktycznego teścia. Zaś Kumar przeżywa rozstanie ze swoją dziewczyną, paląc marihuanę. Kiedy Kumar na progu swojego domu znajduje dziwną przesyłkę, próbując ją dostarczyć do Harolda, doprowadza do spalenia nagradzanej choinki teścia Harolda. Tak Harold i Kumar wyruszają na kolejną pełną zabawnych przygód wyprawę w poszukiwaniu idealnej choinki.

[Blu-ray] http://www.blu-ray.com/movies/A-Very-Harold-and-Kumar-3D-Christmas-Blu-ray/33105/#Screenshots

[IMDb] http://www.imdb.com/title/tt1268799/?ref_=fn_al_tt_3


BluRay 3D Rip (OU) - SONDA
=============================

General
Format : Matroska
Format version : Version 2
File size : 3.99 GiB
Duration : 1h 29mn
Encoding type : 2 pass
Overall bit rate mode : Variable
Overall bit rate : 6 378 Kbps
Movie name : VERY_H_K_XMAS_3D_BLUEBIRD.Bluray3D Rip by Sonda [AT-Team]
Encoded date : UTC 2013-12-27 20:16:07
Writing application : mkvmerge v5.7.0 ('The Whirlwind') built on Jul 8 2012 20:08:51
Writing library : libebml v1.2.3 + libmatroska v1.3.0

Video
ID : 1
Format : AVC
Format/Info : Advanced Video Codec
Format profile : High@L4.1
Format settings, CABAC : Yes
Format settings, ReFrames : 2 frames
Codec ID : V_MPEG4/ISO/AVC
Duration : 1h 29mn
Bit rate mode : Variable
Bit rate : 6 181 Kbps
Maximum bit rate : 40.0 Mbps
Width : 1 920 pixels
Height : 1 080 pixels
Display aspect ratio : 16:9 (2.39:1)
Frame rate mode : Constant
Frame rate : 23.976 fps
Color space : YUV
Chroma subsampling : 4:2:0
Bit depth : 8 bits
Scan type : Progressive
Bits/(Pixel*Frame) : 0.124
Stream size : 3.79 GiB (95%)
Title : BluRay 3D Rip by Sonda - encoding 2 pass
Writing library : x264 core 129
Default : Yes
Forced : No

Audio
ID : 2
Format : AC-3
Format/Info : Audio Coding 3
Mode extension : CM (complete main)
Format settings, Endianness : Big
Codec ID : A_AC3
Duration : 1h 29mn
Bit rate mode : Constant
Bit rate : 192 Kbps
Channel(s) : 2 channels
Channel positions : Front: L R
Sampling rate : 48.0 KHz
Bit depth : 16 bits
Compression mode : Lossy
Stream size : 123 MiB (3%)
Title : AC3 2.0 Lektor PL
Language : Polish
Default : Yes
Forced : No
Announce URLSeedersLeechersDownloaded
http://94.228.192.98/announce3110
http://tracker.torrenty.org:6969/announce5760833
http://exodus.desync.com:6969/announce11463
http://fr33dom.h33t.com:3310/announce000
http://newhorizons.twentyforty.me:2710/announce000
http://i.bandito.org/announce000
udp://9.rarbg.com:2710/announce1842592
udp://ipv4.tracker.harry.lu:80/announce000
udp://tracker.istole.it:80/announce412
udp://tracker.publicbt.com/announce000
udp://10.rarbg.com/announce000
udp://11.rarbg.me/announce000
udp://11.rarbg.com/announce000
udp://10.rarbg.me/announce000
udp://tracker.openbittorrent.com000
udp://tracker.openbittorrent.com:80000
udp://tracker.publicbt.com:80/announce000
udp://9.rarbg.me:2710/announce113265635


Ostatnia aktualizacja: 24/09/2014 05:47:19 Aktualizacja
Nazwa Rozmiar
VERY_H_K_XMAS_3D_BLUEBIRD_miniHD(Sonda).mkv 3.99 GB
10627721-1350320116-537767.jpg 143.89 KB
AT-TEAM old movie.jpg 140.78 KB
AT-TEAM.jpg 36.66 KB
Read iNFO.txt 2.07 KB
Ale Torrenty Team enjoy !.url 0.11 KB

Podobne torrenty

Harold i Kumar: Spalone święta 3D(OU) - A Very Harold & Kumar 3D Christmas *2011* [1080p.Half.Over-Under.DTS-HD HR 5.1.AC3.BluRay.x264-SONDA] [Lektor i Napisy PL] [AT-TEAM](Seeders:90Leechers:115)
Harold i Kumar: Spalone Święta 3D (OU) - A Very Harold And Kumar 3D Christmas (2011) [mini-HD.1080p.Over-Under-HOOLIMAN] [Napisy PL ](Seeders:4Leechers:6)
Harold i Kumar Uciekają z Guantanamo - Harold & Kumar Escape from Guantanamo Bay (2008) [DVDRip] [XviD] [Lektor PL](Seeders:2Leechers:0)



Brak komentarzy...



aletorrenty.pl Webutation