Kategorie
Audiobooki480 
Filmy12572 
Fotografie143 
Gry PC1008 
GSM/PDA186 
Komiksy217 
Koncerty233 
Konsole76 
Książki/Czasopisma1162 
Muzyka10055 
Poradniki184 
Programy4067 
Seriale1949 
Sport206 
Systemy operacyjne116 
Teledyski121 
TV671 
XXX3759 

Tracker Info
Ale Torrenty
Użytkowników:16912
Dziś/wczoraj:23/27
Ostatni tydzień/miesiąc:204/805

Torrentów:37205
Dziś/wczoraj:9/40
Ostatni tydzień/miesiąc:280/1068

Ostatni użytkownik


Klienty torrent


Zegar

Szczegóły torrenta

Hobbit: Pustkowie Smauga(The Hobbit The Desolation of Smaug) (2013) [DVDSCR XviD-MAXSPEED][ENG]

Kategoria: Filmy
Gatunek: Fantasy 

Rozmiar: 1.91 GB
Dodano: 28/12/2013
Uploader: zibi6248
seedów: 7516
leecherów: 1752

Aktualizacja Magnet Link





Kto podziękował

  • Aktualnie 0.00/5
Ocena: 0.0 na 5.0 (Głosów: 0) Na twój upload!


gatunek: FantasyPrzygodowy
produkcja: Nowa ZelandiaUSA
premiera: 27 grudnia 2013 (Polska) 2 grudnia 2013 (świat)
reżyseria: Peter Jackson
scenariusz: Guillermo del ToroPeter JacksonFran WalshPhilippa Boyens

Hobbit Bilbo Baggins razem z Gandalfem oraz trzynastoma krasnoludami zmierza do legowiska smoka Smauga. Bohaterowie chcą pokonać bestię i odebrać jej złoto, które ukradła.

Format                                   : AVI
Format/Info                              : Audio Video Interleave
Format profile                           : OpenDML
Format settings                          : rec
File size                                : 1.91 GiB
Duration                                 : 2h 41mn
Overall bit rate                         : 1 697 Kbps
Writing application                      : VirtualDubMod 1.5.10.2 (build 2542/release)
Writing library                          : VirtualDubMod build 2542/release
Original source form                     : MAX TORRENTZ
Copyright                                : SIGISMUNT

Video
ID                                       : 0
Format                                   : MPEG-4 Visual
Format profile                           : Advanced Simple@L5
Format settings, BVOP                    : 2
Format settings, QPel                    : Yes
Format settings, GMC                     : No warppoints
Format settings, Matrix                  : Default (H.263)
Muxing mode                              : Packed bitstream
Codec ID                                 : XVID
Codec ID/Hint                            : XviD
Duration                                 : 2h 41mn
Bit rate                                 : 1 499 Kbps
Width                                    : 636 pixels
Height                                   : 264 pixels
Display aspect ratio                     : 2.40:1
Frame rate                               : 29.970 fps
Color space                              : YUV
Chroma subsampling                       : 4:2:0
Bit depth                                : 8 bits
Scan type                                : Progressive
Compression mode                         : Lossy
Bits/(Pixel*Frame)                       : 0.298
Stream size                              : 1.69 GiB (88%)
Writing library                          : XviD 1.2.1 (UTC 2008-12-04)

Audio
ID                                       : 1
Format                                   : AC-3
Format/Info                              : Audio Coding 3
Mode extension                           : CM (complete main)
Format settings, Endianness              : Big
Codec ID                                 : 2000
Duration                                 : 2h 41mn
Bit rate mode                            : Constant
Bit rate                                 : 192 Kbps
Channel(s)                               : 2 channels
Channel positions                        : Front: L R
Sampling rate                            : 48.0 KHz
Bit depth                                : 16 bits
Compression mode                         : Lossy
Stream size                              : 221 MiB (11%)
Alignment                                : Aligned on interleaves
Interleave, duration                     : 64 ms (1.92 video frames)
Interleave, preload duration             : 192 ms



Announce URLSeedersLeechersDownloaded
udp://tracker.openbittorrent.com:80/announce000
udp://10.rarbg.com/announce000
udp://tracker.istole.it:80/announce000
udp://ipv4.tracker.harry.lu:80/announce000
udp://11.rarbg.com:80/announce000
udp://tracker.publicbt.com:80/announce000
udp://9.rarbg.com:2710/announce2427738543943
udp://tracker.zond.org:80/announce000
udp://tracker.token.ro:80/announce000
udp://bt.rghost.net:80/announce000
udp://tracker.publichd.eu/announce000
udp://open.demonii.com:1337/announce3459378840068
udp://tracker.coppersurfer.tk:6969/announce3668415687
udp://pow7.com:80/announce000
udp://exodus.desync.com:6969126455273966


Ostatnia aktualizacja: 11/06/2014 08:48:56 Aktualizacja
Nazwa Rozmiar
The Hobbit The Desolation of Smaug (2013) DVDSCR XviD-MAXSPEED www.torentz.3xforum.ro.avi 1.91 GB
sample.avi 4.47 MB
screencaps.jpeg 554.78 KB
The Hobbit The Desolation of Smaug (2013) DVDSCR XviD-MAXSPEED.nfo 3.65 KB
Torrent downloaded from Kickass.to.txt 0.05 KB
Torrent Downloaded From ExtraTorrent.cc.txt 0.04 KB
Torrent downloaded from Rarbg.com.txt 0.03 KB
Torrent downloaded from h33t.to.txt 0.03 KB

Podobne torrenty

Hobbit: Pustkowie Smauga - The Hobbit: The Desolation of Smaug *2013* [DVDSCR.XViD-J25] [Napisy PL] (Seeders:1656Leechers:516)
Niezwykła podróż - The Hobbit: An Unexpected Journey *2012* [DVDScr.XVID.AC3] [ENG](Seeders:1472Leechers:25938)
Hobbit: Niezwykła Podróż - The Hobbit: An Unexpected Journey *2012* [DVDRip.XviD-GHW] [NAPISY PL](Seeders:391Leechers:344)
Hobbit: Niezwykła podróż 3D (OU) - The Hobbit An Unexpected Journey *2012* (Disk 1) [mini-HD.1080p.Over-Under.AC3.BluRay.x264-LEON 345][Napisy PL](Seeders:332Leechers:1871)
Hobbit: Niezwykła podróż 3D (OU) - The Hobbit An Unexpected Journey *2012* (Disk 2) [mini-HD.1080p.Over-Under.AC3.BluRay.x264-LEON 345] [Dubbing PL](Seeders:274Leechers:916)
Hobbit: Pustkowie Smauga / The Hobbit: The Desolation of Smaug (2013) [HD720p] [BluRay.x264.AC3-BiDA] [Dubbing PL](Seeders:257Leechers:1551)
Hobbit: Pustkowie Smauga / The Hobbit: The Desolation of Smaug (2013) [BRRip.XviD-BiDA] [Dubbing PL](Seeders:217Leechers:298)
Hobbit: Pustkowie Smauga - The Hobbit: The Desolation of Smaug *2013* [MD.DVDSCR.XViD-aX] [Dubbing PL - Kino](Seeders:217Leechers:38)
Niezwykła podróż - The Hobbit: An Unexpected Journey *2012* [MD] [LQ] [DVDSCR] [XviD-BiDA] [Dubbing PL - KINO](Seeders:149Leechers:382)
Hobbit: Niezwykła podróż 3D (OU) - The Hobbit: An Unexpected Journey (Extended Cut)-(Disc 1) *2012* [mini-HD.1080p.Over-Under.AC3.BluRay.x264-SONDA] [Lektor PL] [AT-TEAM](Seeders:143Leechers:97)



Brak komentarzy...



aletorrenty.pl Webutation