Kategorie
Audiobooki488 
Filmy13318 
Fotografie160 
Gry PC1099 
GSM/PDA206 
Komiksy218 
Koncerty241 
Konsole106 
Książki/Czasopisma1331 
Muzyka10455 
Poradniki189 
Programy4432 
Seriale2385 
Sport208 
Systemy operacyjne118 
Teledyski122 
TV704 
XXX4149 

Tracker Info
Ale Torrenty
Użytkowników:18709
Dziś/wczoraj:5/26
Ostatni tydzień/miesiąc:238/1068

Torrentów:39929
Dziś/wczoraj:4/45
Ostatni tydzień/miesiąc:388/1558

Ostatni użytkownik


Klienty torrent


Zegar

Szczegóły torrenta

Zbroja Boga 3: Chinski Zodiak - Armour of God III: Chinese Zodiac (2012)[BDRip.x264.HO/U.AC3][Napisy PL][Chinese]

Kategoria: Filmy
Gatunek: Akcja Komedia 

Rozmiar: 2.82 GB
Dodano: 14/03/2013
Uploader: alE13
seedów: 31
leecherów: 21

Aktualizacja Magnet Link





Kto podziękował

  • Aktualnie 0.00/5
Ocena: 0.0 na 5.0 (Głosów: 0) Na twój upload!


Uwaga film w wersji 3D HO/U !!!!

The file containing - sample!!!
Plik zawiera - sample !!!


gatunek: Akcja
produkcja: Chiny, Hongkong
premiera: 12 grudnia 2012 (świat)
reżyseria: Jackie Chan
scenariusz: Jackie Chan
zdjęcia: Man-Ching Ng
czas: 01:55:51

Opis:

A man searches the world for a set of mystic artifacts
- 12 bronze heads of the animals from the Chinese zodiac.

Grupa złodziei pod wodzą Asian Hawka kradnie unikalne dzieła
sztuki, które później są licytowane na aukcjach. W pewnym okresie
nastąpił popyt na chińskie artefakty. Asian Hawk i jego grupa
Postanawia na tym zarobić.

Mamy w tym filmie dużo akcji, pojedynków, humoru i też troszkę dialogów.
Jackie Chan nadal we wspaniałej formie.






Obsada:

Jackie Chan........."Asian Hawk"
Sang-woo Kwon.......Simon
Xingtong Yao........Coco
Laura Weissbecker...Katherine

Dane Techniczne:

Chinese Zodiac 3D (2012) -alE13.mkv
Format                                   : Matroska
Format version                           : Version 4 / Version 2
File size                                : 2.78 GiB
Duration                                 : 2h 2mn
Overall bit rate                         : 3 264 Kbps
Movie name                               : Chinese Zodiac 3D (2012) -alE13
Encoded date                             : UTC 2013-03-14 00:59:25
Writing application                      : mkvmerge v6.1.0
Writing library                          : Lavf52.94.0

Video
ID                                       : 1
Format                                   : AVC
Format/Info                              : Advanced Video Codec
Format profile                           : Main@L4.0
Format settings, CABAC                   : Yes
Format settings, ReFrames                : 2 frames
Codec ID                                 : V_MPEG4/ISO/AVC
Duration                                 : 2h 2mn
Bit rate                                 : 3 000 Kbps
Width                                    : 1 920 pixels
Height                                   : 1 080 pixels
Display aspect ratio                     : 16:9
Frame rate mode                          : Constant
Frame rate                               : 24.000 fps
Color space                              : YUV
Chroma subsampling                       : 4:2:0
Bit depth                                : 8 bits
Scan type                                : Progressive
Bits/(Pixel*Frame)                       : 0.060
Stream size                              : 2.45 GiB (88%)
Writing library                          : x264 core 112 r1834 a51816a

Audio
ID                                       : 2
Format                                   : AC-3
Format/Info                              : Audio Coding 3
Mode extension                           : CM (complete main)
Format settings, Endianness              : Big
Codec ID                                 : A_AC3
Duration                                 : 2h 2mn
Bit rate mode                            : Constant
Bit rate                                 : 320 Kbps
Channel(s)                               : 6 channels
Channel positions                        : Front: L C R, Side: L R, LFE
Sampling rate                            : 48.0 KHz
Bit depth                                : 16 bits
Compression mode                         : Lossy
Stream size                              : 279 MiB (10%)
Title                                    : Chinese Zodiac 3D (2012) -alE13
Language                                 : Chinese


Text
ID                                       : 3
Format                                   : VobSub
Muxing mode                              : zlib
Codec ID                                 : S_VOBSUB
Codec ID/Info                            : The same subtitle format used on DVDs
Title                                    : Chinese Zodiac 3D (2012) -alE13
Language                                 : Polish

Dane Techniczne:

Chinese Zodiac 3D (2012) -alE13 (1).mkv
Format                                   : Matroska
Format version                           : Version 4 / Version 2
File size                                : 2.78 GiB
Duration                                 : 2h 2mn
Overall bit rate                         : 3 264 Kbps
Movie name                               : Chinese Zodiac 3D (2012) -alE13
Encoded date                             : UTC 2013-03-14 00:59:25
Writing application                      : mkvmerge v6.1.0 ('Old Devil') built on Mar  2 2013 14:32:37
Writing library                          : Lavf52.94.0

Video
ID                                       : 1
Format                                   : AVC
Format/Info                              : Advanced Video Codec
Format profile                           : Main@L4.0
Format settings, CABAC                   : Yes
Format settings, ReFrames                : 2 frames
Codec ID                                 : V_MPEG4/ISO/AVC
Duration                                 : 2h 2mn
Bit rate                                 : 3 000 Kbps
Width                                    : 1 920 pixels
Height                                   : 1 080 pixels
Display aspect ratio                     : 16:9
Frame rate mode                          : Constant
Frame rate                               : 24.000 fps
Color space                              : YUV
Chroma subsampling                       : 4:2:0
Bit depth                                : 8 bits
Scan type                                : Progressive
Bits/(Pixel*Frame)                       : 0.060
Stream size                              : 2.45 GiB (88%)
Writing library                          : x264 core 112 r1834 a51816a

Audio
ID                                       : 2
Format                                   : AC-3
Format/Info                              : Audio Coding 3
Mode extension                           : CM (complete main)
Format settings, Endianness              : Big
Codec ID                                 : A_AC3
Duration                                 : 2h 2mn
Bit rate mode                            : Constant
Bit rate                                 : 320 Kbps
Channel(s)                               : 6 channels
Channel positions                        : Front: L C R, Side: L R, LFE
Sampling rate                            : 48.0 KHz
Bit depth                                : 16 bits
Compression mode                         : Lossy
Stream size                              : 279 MiB (10%)
Title                                    : Chinese Zodiac 3D (2012) -alE13
Language                                 : Chinese

Text
ID                                       : 3
Format                                   : VobSub
Muxing mode                              : zlib
Codec ID                                 : S_VOBSUB
Codec ID/Info                            : The same subtitle format used on DVDs
Title                                    : Chinese Zodiac 3D (2012) -alE13
Language                                 : Polish
Announce URLSeedersLeechersDownloaded
http://fr33dom.h33t.com:3310/announce119256
http://exodus.desync.com:6969/announce123
udp://tracker.openbittorrent.com:80/announce15810
udp://tracker.publicbt.com:80/announce4210


Ostatnia aktualizacja: 28/02/2014 15:12:50 Aktualizacja
Nazwa Rozmiar
subs/Chinese Zodiac(2012) -alE13_pl.sub 12.07 MB
subs/Chinese Zodiac(2012) -alE13_pl.srt 124.55 KB
subs/Subs.Eng.Full-ChineseZodiac(3D)2012.halfOU(Ash61).srt 123.51 KB
subs/Chinese Zodiac(2012) -alE13_pl.idx 89.68 KB
Chinese Zodiac 3D (2012) -alE13 (1).mkv 2.78 GB
sample.mkv 28.05 MB
1.jpg 604.53 KB
alE132013-03-14-02h08m37s104.jpg 264.27 KB
alE132013-03-14-02h04m57s207.jpg 187.55 KB
alE132013-03-14-02h05m38s117.jpg 178.20 KB
0kładka.jpg 155.10 KB
3D.jpg 85.51 KB
alE132013-03-14-02h07m03s203.jpg 84.03 KB
alE132013-03-14-02h06m51s58.jpg 83.03 KB
Torrent downloaded from alE13 torrents at BTScene.org.txt 0.12 KB

Podobne torrenty

Zbroja Boga 3: Chiński Zodiak - Armour of God 3: Chinese Zodiac *2012* [DVDSCR XviD-DWR] [CHN] [Kino Azja](Seeders:887Leechers:102)
Zbroja Boga 3: Chiński Zodiak 3D(SBS) - Armour of God III: Chinese Zodiac 3D (EXTENDED) *2012* [mini-HD.1080p.Half.Side-by-Side.AC3.BluRay.x264-SONDA] [Lektor PL] [AT-TEAM](Seeders:89Leechers:29)
Zbroja Boga 3: Chiński Zodiak 3D(OU) - Armour of God III: Chinese Zodiac *2012* [1080p.Half.Over-Under.AC3.PLSUBBED.BluRay.x264-LEON 345](Seeders:50Leechers:314)
Zbroja Boga 3: Chiński Zodiak 3D(OU) - Armour of God III: Chinese Zodiac 3D (EXTENDED) *2012* [1080p.Half.Over-Under.DTS-HD MA.5.1.AC3.BluRay.x264-SONDA] [Lektor i Napisy PL] [AT-TEAM](Seeders:25Leechers:45)
Zbroja Boga 3: Chinski Zodiak - Armour of God III: Chinese Zodiac (2012) [BRRip.XviD] [Napisy PL](Seeders:2Leechers:0)



Brak komentarzy...



aletorrenty.pl Webutation