Kategorie

Tracker Info
Ale Torrenty
Użytkowników:16306
Dziś/wczoraj:16/30
Ostatni tydzień/miesiąc:208/831

Torrentów:36367
Dziś/wczoraj:12/28
Ostatni tydzień/miesiąc:226/1071

Ostatni użytkownik


Klienty torrent


Zegar

Szczegóły torrenta

Dyskoteka lat 80-tych - Disco 80's (2012)[HDTVRip.x264 AC3][Rus]

Kategoria: Koncerty
Gatunek: Rock Disco 

Rozmiar: 5.20 GB
Dodano: 02/01/2014
Uploader: alE13
seedów: 12
leecherów: 0

Aktualizacja Magnet Link





Kto podziękował

  • Aktualnie 0.00/5
Ocena: 0.0 na 5.0 (Głosów: 0) Na twój upload!


produkcja: Rosja
data: 2012
gatunek: dokument, rock, disco
producent: Krasnyj Kwadrat
czas: 04:33:03

opis:

XI International Festival was held November 24, 2012 in CCM "Olympic" in Moscow.
The festival was held in an unusual format for such an event "Rock & Dance", brought
together on one stage all the stars dance discos and protagonists of world and national rock.
(translate by google).

XI Międzynarodowy Festiwal odbył się 24 listopada 2012 hali "Olympic" w Moskwie.
Festiwal odbył się w nietypowym formacie do takiej imprezy "Rock & Dance", zgromadzono
na jednej scenie wielkie gwiazdy dyskoteki i rocka z Rosji i całego świata.



obsada:

• Chris Norman• Zodiac• Boney M• Sabrina• Silent Circle• Arabesque• C. C. Catch• Bad Boys Blue
• Ricchi e Poveri• Black• Matia Bazar

and more....

dane techniczne:

Dyskoteka lat 80-ych.Edycja_01-01-2013_Rip.-alE13.mkv
Format                                   : Matroska
Format version                           : Version 4 / Version 2
File size                                : 5.20 GiB
Duration                                 : 4h 33mn
Overall bit rate                         : 2 727 Kbps
Movie name                               : Dyskoteka lat 80-ych.Edycja_01-01-2013_Rip.-alE13
Encoded date                             : UTC 2014-01-02 20:50:29
Writing application                      : mkvmerge v6.6.0
Writing library                          : libebml v1.3.0 + libmatroska v1.4.1

Video
ID                                       : 1
Format                                   : AVC
Format/Info                              : Advanced Video Codec
Format profile                           : Main@L3.1
Format settings, CABAC                   : Yes
Format settings, ReFrames                : 1 frame
Codec ID                                 : V_MPEG4/ISO/AVC
Duration                                 : 4h 33mn
Bit rate                                 : 2 500 Kbps
Width                                    : 1 280 pixels
Height                                   : 720 pixels
Display aspect ratio                     : 16:9
Frame rate mode                          : Constant
Frame rate                               : 25.000 fps
Color space                              : YUV
Chroma subsampling                       : 4:2:0
Bit depth                                : 8 bits
Scan type                                : Progressive
Bits/(Pixel*Frame)                       : 0.109
Stream size                              : 4.67 GiB (90%)
Title                                    : Dyskoteka lat 80-ych.Edycja_01-01-2013_Rip.-alE13
Writing library                          : x264 core 129

Audio
ID                                       : 2
Format                                   : AC-3
Format/Info                              : Audio Coding 3
Mode extension                           : CM (complete main)
Format settings, Endianness              : Big
Codec ID                                 : A_AC3
Duration                                 : 4h 33mn
Bit rate mode                            : Constant
Bit rate                                 : 224 Kbps
Channel count                            : 2 channels
Channel positions                        : Front: L R
Sampling rate                            : 48.0 KHz
Bit depth                                : 16 bits
Compression mode                         : Lossy
Stream size                              : 437 MiB (8%)
Title                                    : Dyskoteka lat 80-ych.Edycja_01-01-2013_-alE13
Language                                 : Russian




Announce URLSeedersLeechersDownloaded
http://94.228.192.98/announce2010
http://bttracker.crunchbanglinux.org:6969/announce30328
http://bigfoot1942.sektori.org:6969/announce002
http://tracker.torrenty.org:6969/announce50343
http://tracker.torrent-polska.eu:2710/announce20343


Ostatnia aktualizacja: 23/07/2014 20:55:30 Aktualizacja
Nazwa Rozmiar
Dyskoteka lat 80-ych.Edycja_01-01-2013_Rip.-alE13.mkv 5.20 GB
info/Nostalgie11.jpg 184.48 KB
txt.jpg 99.80 KB
poster.jpg 90.57 KB
info/Torrent downloaded from alE13 torrents at BTScene.org.txt 0.12 KB
info/Więcej Filmów.url 0.11 KB
info/Torrent downloaded from torrents at free-torrents.pl.txt 0.09 KB
info/Torrent downloaded from torrents at aletorrenty.pl 0.09 KB

Podobne torrenty



Brak komentarzy...



aletorrenty.pl Webutation