Kategorie

Tracker Info
Ale Torrenty
Użytkowników:16088
Dziś/wczoraj:2/33
Ostatni tydzień/miesiąc:177/837

Torrentów:36120
Dziś/wczoraj:1/27
Ostatni tydzień/miesiąc:269/1111

Ostatni użytkownik


Klienty torrent


Zegar

Szczegóły torrenta

Safe House - Bezpieczny Dom *2012* [BRRip XviD] [Lektor PL]

Kategoria: Filmy
Gatunek: Sensacyjny Thriller 

Rozmiar: 734.18 MB
Dodano: 11/08/2013
Uploader: Alex
seedów: 34
leecherów: 9

Aktualizacja Magnet Link





Kto podziękował

  • Aktualnie 0.00/5
Ocena: 0.0 na 5.0 (Głosów: 0) Na twój upload!


Produkcja: RPA, USA
Gatunek: Sensacyjny, Thriller
Reżyseria: Daniel Espinosa
Scenariusz: David Guggenheim
Premiera: 24 lutego 2012 (Polska) 10 lutego 2012 (świat)
Czas trwania: 1 godz. 55 min.

Filmweb: http://www.filmweb.pl/film/Safe+House-2012-562264

Opis filmu:

Denzel Washington wciela się w jednego z najniebezpieczniejszych wrogów CIA, byłego oficera operacyjnego Tobina Frosta, który niespodziewanie pojawia się w jednym z miast Afryki Południowej i stawia na nogi cały wywiad. Przejęty przez agentów zostaje odesłany do kryjówki prowadzonej przez Matta Westona - w tej roli Ryan Reynolds. Kiedy miejsce zostaje zaatakowane przez brutalnych najemników, Matt zmuszony jest pomóc w ucieczce Frostowi i szybko zdaje sobie sprawę, że jego moralność i idealizm zostały wystawione na próbę. Teraz obaj muszą starać się przeżyć, aby dowiedzieć się, kto chciał się ich pozbyć.

Obsada:

Denzel Washington...Tobin Frost
Ryan Reynolds...Matt Weston
Vera Farmiga...Catherine Linklater
Brendan Gleeson...David Barlow
Sam Shepard...Harlan Whitford
Rubén Blades...Carlos Villar
Nora Arnezeder...Ana Moreau
Robert Patrick...Daniel Kiefer

Info:

Format                                   : AVI
Format/Info                              : Audio Video Interleave
File size                                : 703 MiB
Duration                                 : 1h 50mn
Overall bit rate                         : 892 Kbps
Movie name                               : Safe.House.2012.PL.BRRip.XviD-BiDA.avi
Director                                 : created.with.SUPER(C).v2012.bld.51
Writing application                      : SUPER(C)  

Video
ID                                       : 0
Format                                   : MPEG-4 Visual
Format profile                           : Simple@L3
Format settings, BVOP                    : No
Format settings, QPel                    : No
Format settings, GMC                     : No warppoints
Format settings, Matrix                  : Default (H.263)
Codec ID                                 : XVID
Codec ID/Hint                            : XviD
Duration                                 : 1h 50mn
Bit rate                                 : 767 Kbps
Width                                    : 368 pixels
Height                                   : 208 pixels
Display aspect ratio                     : 16:9
Frame rate                               : 25.000 fps
Color space                              : YUV
Chroma subsampling                       : 4:2:0
Bit depth                                : 8 bits
Scan type                                : Progressive
Compression mode                         : Lossy
Bits/(Pixel*Frame)                       : 0.401
Stream size                              : 604 MiB (86%)
Writing library                          : SUPER(C).

Audio
ID                                       : 1
Format                                   : MPEG Audio
Format version                           : Version 1
Format profile                           : Layer 3
Mode                                     : Joint stereo
Codec ID                                 : 55
Codec ID/Hint                            : MP3
Duration                                 : 1h 50mn
Bit rate mode                            : Constant
Bit rate                                 : 112 Kbps
Channel(s)                               : 2 channels
Sampling rate                            : 48.0 KHz
Compression mode                         : Lossy
Stream size                              : 88.2 MiB (13%)
Alignment                                : Aligned on interleaves
Interleave, duration                     : 24 ms (0.60 video frame)
Interleave, preload duration             : 24 ms
Announce URLSeedersLeechersDownloaded
http://fr33dom.h33t.com:3310/announce12380
http://tracker.torrenty.org:6969/announce411245
udp://fr33dom.h33t.com:3310/announce000
http://www.h33t.com:3310/announce000
http://exodus.desync.com/announce5111
http://exodus.desync.com:6969/announce1128
udp://9.rarbg.me:2710/announce2240
http://fr33domtracker.h33t.com:3310/announce000
udp://fr33domtracker.h33t.com:3310/announce000
http://tracker.ex.ua/announce000


Ostatnia aktualizacja: 26/05/2014 06:59:28 Aktualizacja
Nazwa Rozmiar
Safe.House.2012.PL.BRRip.XviD.avi 702.54 MB
Zobacz.mpg 31.18 MB
Baner.png 469.14 KB
Przeczytaj!!!!.txt 2.02 KB
Wiecej fajnych torrentow.url 0.11 KB

Podobne torrenty

Safe House *2012* [DVDRip.XviD-KiT] [Lektor PL](Seeders:535Leechers:2902)
Safe House (2012) [720p.BluRay.X264-BLOW.PublicHD] [Napisy PL](Seeders:76Leechers:360)
Safe House (2012) [Multi.1080p.BluRay.AVC DTS-HD.MA.5.1][ENG][Lector & Sub PL][AT-Team](Seeders:54Leechers:243)
Safe House (2012) [Multi.Remux.BluRay.AVC DTS-HD.MA.5.1][ENG][Lector & Sub PL][AT-Team](Seeders:13Leechers:6)
Safe House (2012) [Multi.720p.BluRay.x264.AC3..5.1][ENG][Lector & Sub PL][AT-Team](Seeders:8Leechers:3)
Safe House *2012* [BRRip] [XviD-BiDA] [Lektor PL](Seeders:3Leechers:18)
Safe House (2012) PL.BRRip.XviD-BiDA / Lektor PL(Seeders:2Leechers:93)
Bezpieczny Dom - Safe House*2012* [BRRip] [XviD-BiDA] [Lektor PL](Seeders:1Leechers:397)



Brak komentarzy...



aletorrenty.pl Webutation