Kategorie
Audiobooki500 
Filmy14098 
Fotografie160 
Gry PC1184 
GSM/PDA206 
Komiksy218 
Koncerty250 
Konsole112 
Książki/Czasopisma1583 
Muzyka11076 
Poradniki190 
Programy4561 
Seriale3093 
Sport250 
Systemy operacyjne118 
Teledyski124 
TV758 
XXX5309 

Tracker Info
Ale Torrenty
Użytkowników:19808
Dziś/wczoraj:7/14
Ostatni tydzień/miesiąc:135/552

Torrentów:43790
Dziś/wczoraj:84/111
Ostatni tydzień/miesiąc:876/2449

Ostatni użytkownik


Klienty torrent


Zegar

Szczegóły torrenta

Spaleni słońcem (1994) [DVDRip x264 AC3 5.1][Rus/PL][AT-Team]

Kategoria: Filmy
Gatunek: Dramat Historyczny 

Rozmiar: 1.93 GB
Dodano: 03/01/2014
Uploader: Alex
seedów: 3
leecherów: 0

Aktualizacja Magnet Link





Kto podziękował

  • Aktualnie 0.00/5
Ocena: 0.0 na 5.0 (Głosów: 0) Na twój upload!


gatunek: Dramat historyczny
produkcja: Francja, Rosja
premiera: 14 czerwca 1996 (Polska) 21 maja 1994 (świat)
reżyseria: Nikita Michałkow
scenariusz: Nikita Michałkow, Rustam Ibragimbekov

Filmweb: 8,0/10 z 14.602 głosy
http://www.filmweb.pl/Spaleni.Sloncem

Opis:

Przyjazd dawnego przyjaciela rodziny burzy idylliczną atmosferę w podmoskiewskim domu pułkownika Armii Czerwonej.

Obsada:

Nikita Michałkow - Pułkownik Siergiej Petrowicz Kotow
Oleg Menshikov - Dmitrij "Mitja" Arsentiew, pracownik NKWD
Ingeborga Dapkūnaitė - Marusia, żona Kotowa
Nadezhda Mikhalkova - Nadja, córka Kotowa
André Oumansky - Philippe
Svetlana Kryuchkova - Katja Mochowa, gosposia
Nina Arkhipova - Jelena Michajłowna
Avangard Leontyev - Kierowca ciężarówki

Info:

Format                                   : Matroska
Format version                           : Version 4 / Version 2
File size                                : 1.93 GiB
Duration                                 : 2h 8mn
Overall bit rate                         : 2 142 Kbps
Movie name                               : Spaleni słońcem (1994) - Dla was od AT-Team
Encoded date                             : UTC 2014-01-03 14:25:18
Writing application                      : mkvmerge v6.3.0 ('You can't stop me!') built on Jun 27 2013 22:06:07
Writing library                          : libebml v1.3.0 + libmatroska v1.4.0

Video
ID                                       : 1
Format                                   : AVC
Format/Info                              : Advanced Video Codec
Format profile                           : High@L3.0
Format settings, CABAC                   : Yes
Format settings, ReFrames                : 4 frames
Codec ID                                 : V_MPEG4/ISO/AVC
Duration                                 : 2h 8mn
Bit rate                                 : 1 500 Kbps
Width                                    : 704 pixels
Height                                   : 528 pixels
Display aspect ratio                     : 4:3
Frame rate mode                          : Constant
Frame rate                               : 25.000 fps
Color space                              : YUV
Chroma subsampling                       : 4:2:0
Bit depth                                : 8 bits
Scan type                                : Progressive
Bits/(Pixel*Frame)                       : 0.161
Stream size                              : 1.31 GiB (68%)
Title                                    : AT-Team
Writing library                          : x264 core 112
Encoding settings                        : cabac=1 / ref=3 / deblock=1:-1:-1 / analyse=0x3:0x113 / me=hex / subme=7 / psy=1 / psy_rd=1.00:0.15 / mixed_ref=1 / me_range=16 / chroma_me=1 / trellis=1 / 8x8dct=1 / cqm=0 / deadzone=21,11 / fast_pskip=1 / chroma_qp_offset=-3 / threads=12 / sliced_threads=0 / nr=0 / decimate=1 / interlaced=0 / constrained_intra=0 / bframes=3 / b_pyramid=2 / b_adapt=2 / b_bias=0 / direct=1 / weightb=1 / open_gop=0 / weightp=2 / keyint=250 / keyint_min=25 / scenecut=40 / intra_refresh=0 / rc_lookahead=50 / rc=2pass / mbtree=1 / bitrate=1500 / ratetol=1.0 / qcomp=0.60 / qpmin=3 / qpmax=51 / qpstep=4 / cplxblur=20.0 / qblur=0.5 / ip_ratio=1.40 / aq=1:1.00
Language                                 : Russian
Default                                  : Yes
Forced                                   : No
Color primaries                          : BT.601 NTSC
Transfer characteristics                 : BT.709
Matrix coefficients                      : BT.601

Audio #1
ID                                       : 2
Format                                   : AC-3
Format/Info                              : Audio Coding 3
Mode extension                           : CM (complete main)
Format settings, Endianness              : Big
Codec ID                                 : A_AC3
Duration                                 : 2h 8mn
Bit rate mode                            : Constant
Bit rate                                 : 448 Kbps
Channel(s)                               : 6 channels
Channel positions                        : Front: L C R, Side: L R, LFE
Sampling rate                            : 48.0 KHz
Bit depth                                : 16 bits
Compression mode                         : Lossy
Stream size                              : 413 MiB (21%)
Title                                    : AT-Team
Language                                 : Russian
Default                                  : No
Forced                                   : No

Audio #2
ID                                       : 3
Format                                   : AC-3
Format/Info                              : Audio Coding 3
Format profile                           : Dolby Digital
Mode extension                           : CM (complete main)
Format settings, Endianness              : Big
Codec ID                                 : A_AC3
Duration                                 : 2h 8mn
Bit rate mode                            : Constant
Bit rate                                 : 192 Kbps
Channel(s)                               : 2 channels
Channel positions                        : Front: L R
Sampling rate                            : 48.0 KHz
Bit depth                                : 16 bits
Compression mode                         : Lossy
Stream size                              : 177 MiB (9%)
Title                                    : AT-Team
Language                                 : Polish
Default                                  : Yes
Forced                                   : No

Screen:






Announce URLSeedersLeechersDownloaded
http://tracker.aletorrenty.pl:2710/announce30519


Ostatnia aktualizacja: 15/06/2014 12:04:32 Aktualizacja
Nazwa Rozmiar
Spaleni słońcem (1994) [DVDRip x264 AC3 5.1][RUS.PL][AT-Team].mkv 1.93 GB
AT-TEAM old movie.jpg 140.78 KB
AT-TEAM.jpg 36.66 KB
Read iNFO.txt 2.07 KB
Download Alex torrents at AleTorrenty.pl.txt 0.38 KB
Ale Torrenty Team enjoy !.url 0.11 KB
Download Alex torrents at flashtorrents.org.txt 0.04 KB
Download Alex torrents at free-torrents.pl.txt 0.04 KB
Download Alex torrents at BTScene.org.txt 0.04 KB
Download Alex torrents at divxhunt.me.txt 0.04 KB
Download Seed torrents at p2pdl.com.txt 0.03 KB

Podobne torrenty

2cztery7 - Funk-Dla Smaku/Spaleni Innym Słońcem (2005-2008) [mp3@198-164](Seeders:1Leechers:2)



Brak komentarzy...



aletorrenty.pl Webutation