Kategorie
Audiobooki500 
Filmy13875 
Fotografie160 
Gry PC1150 
GSM/PDA206 
Komiksy218 
Koncerty245 
Konsole108 
Książki/Czasopisma1500 
Muzyka10780 
Poradniki189 
Programy4530 
Seriale2697 
Sport213 
Systemy operacyjne118 
Teledyski124 
TV723 
XXX4486 

Tracker Info
Ale Torrenty
Użytkowników:19408
Dziś/wczoraj:3/16
Ostatni tydzień/miesiąc:130/596

Torrentów:41822
Dziś/wczoraj:7/41
Ostatni tydzień/miesiąc:353/1553

Ostatni użytkownik


Klienty torrent


Zegar

Szczegóły torrenta

Kroniki Riddicka-The Chronicles Of Riddick (2004) Dir.Cut [BluRay.720p.DTS.x264] [Napisy PL]

Kategoria: Filmy
Gatunek: Sci-Fi 

Rozmiar: 6.58 GB
Dodano: 06/03/2013
Uploader: elladajarek
seedów: 0
leecherów: 3

Aktualizacja Magnet Link





Kto podziękował

  • Aktualnie 0.00/5
Ocena: 0.0 na 5.0 (Głosów: 0) Na twój upload!


Gatunek: Akcja, Sci-Fi
Produkcja: USA
Premiera: 24 września 2004 (Polska), 3 czerwca 2004 (świat)
Reżyseria: David Twohy
Scenariusz: David Twohy

Armia okrutnych Necromongerów najeżdża galaktykę. Jedyną istotą, która może im się przeciwstawić, jest awanturnik i ścigany więzień Riddick, mający dar widzenia w ciemności.

Obsada:

Vin Diesel ... Riddick
Colm Feore ... Lord Marshal
Thandie Newton ... Dame Vaako
Judi Dench ... Aereon
Karl Urban ... Vaako
Alexa Davalos ... Kyra
Linus Roache ... Purifier
Yorick van Wageningen...The Guv
Nick Chinlund ... Toombs
Keith David ... Imam
Mark Gibbon ... Irgun
Roger R. Cross ... Toal
Terry Chen ... Merc Pilot
Christina Cox ... Eve Logan
Nigel Vonas ... Merc

Dane techniczne:

Subtitles Muxed: Polish(SubRip), English, French, Spanish(VobSub)

Subtitles Ext: Romanian,Serbian,Spanish,Swedish,Arabic.
Subtitles Ext: Slovenian,Vietnamese,Brazilian,Bulgarian.
Subtitles Ext: English,Croatian,Danish,Dutch,Finnish.
Subtitles Ext: French,German,Greek,Italian,Norwegian.
Subtitles Ext: Portuguese,Macedonian,Hungarian,Polish.
Subtitles Ext: Russian,Chinese.(SubRip and VobSub)

Dane techniczne:

Format : Matroska
File size : 6.57 GiB
Duration : 2h 14mn
Overall bit rate : 7 014 Kbps
Movie name : The Chronicles Of Riddick 2004 Dir.Cut
Writing application : mkvmerge v6.1.0
Writing library : libebml v1.3.0 + libmatroska v1.4.0
Video #1
ID : 1
Format : AVC
Format/Info : Advanced Video Codec
Format profile : High@L4.1
Format settings, CABAC : Yes
Format settings, ReFrames : 10 frames
Codec ID : V_MPEG4/ISO/AVC
Duration : 2h 14mn
Bit rate : 5 497 Kbps
Width : 1 280 pixels
Height : 528 pixels
Display aspect ratio : 2.40:1
Frame rate : 23.976 fps
Color space : YUV
Chroma subsampling : 4:2:0
Bit depth : 8 bits
Scan type : Progressive
Bits/(Pixel*Frame) : 0.339
Stream size : 5.02 GiB (76%)
Title : The Chronicles Of Riddick 2004 Dir.Cut
Writing library : x264
Language : English
Audio #2
ID : 2
Format : DTS
Format/Info : Digital Theater Systems
Codec ID : A_DTS
Duration : 2h 14mn
Bit rate mode : Constant
Bit rate : 1 510 Kbps
Channel(s) : 6 channels
Channel positions : Front: L C R, Side: L R, LFE
Sampling rate : 48.0 KHz
Bit depth : 24 bits
Compression mode : Lossy
Stream size : 1.41 GiB (22%)
Text #3
ID : 3
Format : UTF-8
Codec ID : S_TEXT/UTF8
Codec ID/Info : UTF-8 Plain Text
Language : Polish
Text #4
ID : 4
Format : VobSub
Muxing mode : zlib
Codec ID : S_VOBSUB
Codec ID/Info : The same subtitle format used on DVDs
Language : English
Text #5
ID : 5
Format : VobSub
Muxing mode : zlib
Codec ID : S_VOBSUB
Codec ID/Info : The same subtitle format used on DVDs
Language : French
Text #6
ID : 6
Format : VobSub
Muxing mode : zlib
Codec ID : S_VOBSUB
Codec ID/Info : The same subtitle format used on DVDs
Language : Spanish

Announce URLSeedersLeechersDownloaded
http://fr33dom.h33t.com:3310/announce032


Ostatnia aktualizacja: 06/09/2013 20:51:58 Aktualizacja
Nazwa Rozmiar
The Chronicles of Riddick 2004 Dir.Cut BluRay 720p DTS.mkv 6.57 GB
SubRip (srt)/httpaletorrenty.pl.url 0.21 KB
SubRip (srt)/The Chronicles Of Riddick Arabic.srt 82.25 KB
SubRip (srt)/The Chronicles Of Riddick Brazilian.srt 63.85 KB
SubRip (srt)/The Chronicles Of Riddick Bulgarian.srt 79.20 KB
SubRip (srt)/The Chronicles Of Riddick Croatian.srt 61.79 KB
SubRip (srt)/The Chronicles Of Riddick Danish.srt 64.18 KB
SubRip (srt)/The Chronicles Of Riddick Dutch - Extract BD.srt 65.49 KB
SubRip (srt)/The Chronicles Of Riddick English (Hearing Impaired) - Extract BD.srt 70.78 KB
SubRip (srt)/The Chronicles Of Riddick English.srt 64.13 KB
SubRip (srt)/The Chronicles Of Riddick Finnish.srt 62.65 KB
SubRip (srt)/The Chronicles Of Riddick French.srt 63.69 KB
SubRip (srt)/The Chronicles Of Riddick German.srt 68.79 KB
SubRip (srt)/The Chronicles Of Riddick Greek.srt 85.82 KB
SubRip (srt)/The Chronicles Of Riddick Hungarian.srt 63.92 KB
SubRip (srt)/The Chronicles Of Riddick Italian.srt 65.43 KB
SubRip (srt)/The Chronicles Of Riddick Macedonian.srt 81.65 KB
SubRip (srt)/The Chronicles Of Riddick Norwegian.srt 62.60 KB
SubRip (srt)/The Chronicles Of Riddick Polish.srt 66.93 KB
SubRip (srt)/The Chronicles Of Riddick Portuguese.srt 65.92 KB
SubRip (srt)/The Chronicles Of Riddick Romanian.srt 66.72 KB
SubRip (srt)/The Chronicles Of Riddick Serbian (Cyrillic).srt 84.20 KB
SubRip (srt)/The Chronicles Of Riddick Serbian.srt 62.90 KB
SubRip (srt)/The Chronicles Of Riddick Slovenian.srt 58.88 KB
SubRip (srt)/The Chronicles Of Riddick Spanish.srt 67.13 KB
SubRip (srt)/The Chronicles Of Riddick Swedish.srt 63.03 KB
SubRip (srt)/The Chronicles Of Riddick Vietnamese.srt 71.61 KB
VobSub (Sub.idx) The same subtitle format used on DVDs - Extract from BD/The Chronicles Of Riddick Chinese.idx 41.73 KB
VobSub (Sub.idx) The same subtitle format used on DVDs - Extract from BD/The Chronicles Of Riddick Chinese.sub 2.73 MB
VobSub (Sub.idx) The same subtitle format used on DVDs - Extract from BD/The Chronicles Of Riddick Russian.idx 40.94 KB
VobSub (Sub.idx) The same subtitle format used on DVDs - Extract from BD/The Chronicles Of Riddick Russian.sub 3.64 MB

Podobne torrenty

Kroniki Riddicka - The Chronicles of Riddick *2004* [DVDRip.XviD] [Lektor PL](Seeders:94Leechers:320)
Pitch Black *2000* (Theatrical Cut) [1080p.Dual-audio.DTS-HD.MA 5.1.AC3.BluRay.x264-LEON 345] [Lektor i Napisy PL] + Kroniki Riddicka - Mroczna Furia *2004* [Dubbing PL](Seeders:63Leechers:380)
Kroniki lombardu - Pawn Shop Chronicles *2013* [BRRiP.XviD][ENG][Lektor PL] (Seeders:55Leechers:10)
Kroniki Riddicka-The Chronicles of Riddick *2004* [DVDRip.x264.AC3] [Lektor PL] [dabrjarek](Seeders:49Leechers:9)
Kroniki Riddicka - The Chronicles of Riddick (Theatrical Cut) *2004* [1080p.Dual-audio.DTS-HD.MA 5.1.AC3.BluRay.x264-LEON 345] [Lektor i Napisy PL](Seeders:49Leechers:167)
Kroniki lombardu / Pawn Shop Chronicles [HD720p] [BRRip.XviD.AC3-MORS] [Lektor PL](Seeders:42Leechers:9)
Kroniki lombardu - Pawn Shop Chronicles *2013* [480p] [BRRip] [XViD] [AC3-MORS] [Lektor PL](Seeders:36Leechers:1)
Kroniki Riddicka - The Chronicles of Riddick (Unrated Director’s Cut) *2004* [1080p.Dual-audio.DTS-HD.MA 5.1.AC3.BluRay.x264-LEON 345] [Napisy PL]+ Kroniki Riddicka - Mroczna Furia *2004* [Dubbing PL](Seeders:34Leechers:106)
Kroniki chronoklazmu / Chronoclasm Chronicles (2012) PL(Seeders:34Leechers:9)
Kami Garcia, Margaret Stohl - Kroniki Obdarzonych tomy 1-3 [PL] [pdf] [mobi] [rtf] [marta$](Seeders:32Leechers:14)



Brak komentarzy...



aletorrenty.pl Webutation