Kategorie

Tracker Info
Ale Torrenty
Użytkownicy:13452
torrentów:31421
Dziś/wczoraj:35/31
Ostatni tydzień/miesiąc:288/1503

Ostatni użytkownik


Klienty torrent


Zegar

Szczegóły torrenta

Jak rozpętałem II wojne światową cz. 3 (1969) [DVDRip x264 AC3][PL][AT-Team]

Kategoria: Filmy
Gatunek: Komedia Przygodowy Wojenny

Rozmiar: 1,012.37 MB
Dodano: 17/12/2013
Uploader: Alex
seedów: 18
leecherów: 2

Aktualizacja Magnet Link





Kto podziękował

  • Aktualnie 0.00/5
Ocena: 0.0 na 5.0 (Głosów: 0) Na twój upload!



gatunek: Komedia, Przygodowy, Wojenny
produkcja: Polska
premiera: 2 kwietnia 1970 (Polska) 2 kwietnia 1970 (świat)
reżyseria: Tadeusz Chmielewski
scenariusz: Tadeusz Chmielewski

Filmweb: 7,9/10 z 149.070 głosów
http://www.filmweb.pl/Jak.Rozpetalem.Druga.Wojne.Swiatowa

Opis:

Pechowy szeregowiec Franek Dolas myśli, że rozpętał II wojnę światową. Chcąc zabłysnąć bohaterskimi czynami, plącze się w coraz większe tarapaty.

Obsada:

Marian Kociniak - Franek Dolas
Wirgiliusz Gryń - Józek Kryska
Elżbieta Starostecka - Piosenkarka w tawernie
Emil Karewicz - Oficer gestapo w Austrii
Kazimierz Rudzki - Kapitan Ralf Peacoock
Wacław Kowalski - Kiedros, sierżant Legii Cudzoziemskiej
Joanna Jędryka - Teresa
Jan Świderski - Letoux, kapitan Legii Cudzoziemskiej

Info:

Format                                   : Matroska
Format version                           : Version 4 / Version 2
File size                                : 1 012 MiB
Duration                                 : 1h 12mn
Overall bit rate                         : 1 950 Kbps
Movie name                               : Jak rozpętałem II wojne światową cz. 3 (1969) - Dla was od AT-Team
Encoded date                             : UTC 2013-12-16 22:34:11
Writing application                      : mkvmerge v6.3.0 ('You can't stop me!') built on Jun 27 2013 22:06:07
Writing library                          : libebml v1.3.0 + libmatroska v1.4.0

Video
ID                                       : 1
Format                                   : AVC
Format/Info                              : Advanced Video Codec
Format profile                           : High@L3.0
Format settings, CABAC                   : Yes
Format settings, ReFrames                : 4 frames
Codec ID                                 : V_MPEG4/ISO/AVC
Duration                                 : 1h 12mn
Bit rate                                 : 1 500 Kbps
Width                                    : 704 pixels
Height                                   : 352 pixels
Display aspect ratio                     : 2.000
Frame rate mode                          : Constant
Frame rate                               : 25.000 fps
Color space                              : YUV
Chroma subsampling                       : 4:2:0
Bit depth                                : 8 bits
Scan type                                : Progressive
Bits/(Pixel*Frame)                       : 0.242
Stream size                              : 759 MiB (75%)
Title                                    : AT-Team
Writing library                          : x264 core 112
Encoding settings                        : cabac=1 / ref=3 / deblock=1:-1:-1 / analyse=0x3:0x113 / me=hex / subme=7 / psy=1 / psy_rd=1.00:0.15 / mixed_ref=1 / me_range=16 / chroma_me=1 / trellis=1 / 8x8dct=1 / cqm=0 / deadzone=21,11 / fast_pskip=1 / chroma_qp_offset=-3 / threads=12 / sliced_threads=0 / nr=0 / decimate=1 / interlaced=0 / constrained_intra=0 / bframes=3 / b_pyramid=2 / b_adapt=2 / b_bias=0 / direct=1 / weightb=1 / open_gop=0 / weightp=2 / keyint=250 / keyint_min=25 / scenecut=40 / intra_refresh=0 / rc_lookahead=50 / rc=2pass / mbtree=1 / bitrate=1500 / ratetol=1.0 / qcomp=0.60 / qpmin=3 / qpmax=51 / qpstep=4 / cplxblur=20.0 / qblur=0.5 / ip_ratio=1.40 / aq=1:1.00
Language                                 : Polish
Default                                  : Yes
Forced                                   : No
Color primaries                          : BT.601 NTSC
Transfer characteristics                 : BT.709
Matrix coefficients                      : BT.601

Audio
ID                                       : 2
Format                                   : AC-3
Format/Info                              : Audio Coding 3
Mode extension                           : CM (complete main)
Format settings, Endianness              : Big
Codec ID                                 : A_AC3
Duration                                 : 1h 12mn
Bit rate mode                            : Constant
Bit rate                                 : 448 Kbps
Channel(s)                               : 6 channels
Channel positions                        : Front: L C R, Side: L R, LFE
Sampling rate                            : 48.0 KHz
Bit depth                                : 16 bits
Compression mode                         : Lossy
Stream size                              : 233 MiB (23%)
Title                                    : AT-Team
Language                                 : Polish
Default                                  : Yes
Forced                                   : No

Screen:






Announce URLSeedersLeechersDownloaded
http://announce.torrentsmd.com:6969/announce000
http://fr33domtracker.h33t.eu:3310/announce000
http://announce.opensharing.org:2710/announce000
http://tracker.torrent-polska.eu:2710/announce31314
http://tracker.torrent-polska.info:2710/announce71317
http://flashtorrents.org/announce.php000
http://divxhunt.me/announce.php000
http://pimp4003-torrents.me:2710/announce.php000
http://p2pdl.com:2710/announce000
http://www.areafiles.org/announce.php000
http://94.228.192.98/announce6050
http://tracker.librebt.com/announce000
http://exodus.desync.com:6969/announce205
http://academic-p2p.appspot.com/announce000
http://bt.eutorrents.com/announce.php000


Ostatnia aktualizacja: 31/03/2014 00:29:01 Aktualizacja
Nazwa Rozmiar
Jak rozpętałem II wojne światową cz. 3 (1969) [DVDRip x264 AC3][PL][AT-Team].mkv 1,012.19 MB
AT-TEAM old movie.jpg 140.78 KB
AT-TEAM.jpg 36.66 KB
Read iNFO.txt 2.07 KB
Download Alex torrents at AleTorrenty.pl.txt 0.38 KB
Ale Torrenty Team enjoy !.url 0.11 KB
Download Alex torrents at flashtorrents.org.txt 0.04 KB
Download Alex torrents at electrotorrent.pl.txt 0.04 KB
Download Alex torrents at BTScene.org.txt 0.04 KB
Download Alex torrents at divxhunt.me.txt 0.04 KB
Download Seed torrents at p2pdl.com.txt 0.03 KB

Podobne torrenty

Jak rozpętałem drugą wojnę światową (1-3)(1969)[720p.HDTVRip.x264.AC3].mkv(Seeders:36Leechers:13)
Jak rozpętałem II Wojnę Światową-Wśród swoich *1970* [DvDRip.XviD] [PL](Seeders:12Leechers:8)
Jak rozpętałem II wojne światową cz. 2 (1969) [DVDRip x264 AC3][PL][AT-Team](Seeders:7Leechers:5)
Jak rozpętałem II wojne światową (1969) [DVDRip x264 AC3][PL][AT-Team](Seeders:6Leechers:0)
Sławiński Kazimierz - Jak rozpętałem II wojnę światową [audiobook pl](Seeders:6Leechers:0)



Brak komentarzy...



aletorrenty.pl Webutation