Kategorie
Audiobooki519 
Filmy15432 
Fotografie200 
Gry PC1342 
GSM/PDA220 
Komiksy218 
Koncerty281 
Konsole112 
Książki/Czasopisma1751 
Muzyka11858 
Poradniki200 
Programy4900 
Seriale3511 
Sport262 
Systemy operacyjne145 
Teledyski128 
TV832 
XXX10965 

Tracker Info
AleTorrenty.pl-Ale Torrenty Team
Użytkowników:21809
Dziś/wczoraj:7/11
Ostatni tydzień/miesiąc:87/483

Torrentów:52876
Dziś/wczoraj:54/155
Ostatni tydzień/miesiąc:1061/3919

Ostatni użytkownik


Klienty torrent


Zegar

Szczegóły torrenta

Pacyfik odc.2 (2010) [720p.BluRay.x264.DTS] [Lektor PL]

Kategoria: Seriale
Gatunek: Wojenne 

Rozmiar: 2.03 GB
Dodano: 27/04/2013
Uploader: elladajarek
seedów: 2
leecherów: 1

Aktualizacja Magnet Link





Kto podziękował

  • Aktualnie 0.00/5
Ocena: 0.0 na 5.0 (Głosów: 0) Na twój upload!


Gatunek: Dramat, Wojenny
Produkcja: USA, Australia
Premiera: 2010 (świat)
Reżyseria: David Nutter
Scenariusz: Bruce C. McKenna
Muzyka: Hans Zimmer,Blake Neely,Geoff Zanelli
Zdjęcia: Remi Adefarasin, BSC

Basilone – Październik 1942. Zadaniem 7 pułku piechoty morskiej jest wsparcie jednostki Leckiego i całej 1 dywizji podczas obrony lotniska Hendersona.

Obsada:

James Badge Dale....Starszy szeregowiec Robert Leckie
Joe Mazzello....Starszy szeregowiec Eugene B. Sledge
Jon Seda....Sierżant John "Manila" Basilone
Jon Bernthal....Sierżant Manuel Rodriguez
Joshua Bitton....Sierżant J.P. Morgan
Tom Budge....Starszy szeregowiec Ronnie Gibson

Dane techniczne:

Format : Matroska
Format version : Version 4 / Version 2
File size : 2.03 GiB
Duration : 50mn 18s
Overall bit rate : 5 769 Kbps
Writing application : mkvmerge v6.1.0 ('Old Devil')
Writing library : libebml v1.3.0 + libmatroska v1.4.0
Video #1
ID : 1
Format : AVC
Format/Info : Advanced Video Codec
Format profile : High@L4.1
Format settings, CABAC : Yes
Format settings, ReFrames : 5 frames
Codec ID : V_MPEG4/ISO/AVC
Duration : 50mn 18s
Bit rate : 5 000 Kbps
Width : 1 280 pixels
Height : 720 pixels
Display aspect ratio : 16:9
Frame rate mode : Constant
Frame rate : 23.976 fps
Color space : YUV
Chroma subsampling : 4:2:0
Bit depth : 8 bits
Scan type : Progressive
Bits/(Pixel*Frame) : 0.226
Stream size : 1.72 GiB (85%)
Title : The Pacific:"Basilone"
Writing library : x264
Language : English
Default : No
Forced : No
Audio #2
ID : 2
Format : DTS
Format/Info : Digital Theater Systems
Mode : 16
Format settings, Endianness : Big
Codec ID : A_DTS
Duration : 50mn 18s
Bit rate mode : Constant
Bit rate : 768 Kbps
Channel(s) : 2 channels
Channel positions : Front: L R
Sampling rate : 48.0 KHz
Bit depth : 24 bits
Compression mode : Lossy
Stream size : 276 MiB (13%)
Title : Polish DTS 768 Kbps 2 channels
Language : Polish
Default : No
Forced : No

Announce URLSeedersLeechersDownloaded
http://fr33dom.h33t.com:3310/announce213


Ostatnia aktualizacja: 23/08/2013 10:06:04 Aktualizacja
Nazwa Rozmiar
The Pacific 02 2010 720p.BluRay.DTS.x264 .mkv 2.03 GB

Podobne torrenty

The Pacyfic - Pacyfik *2010* [DVDrip.x264.AC3.Extra Edition] [Lektor PL] [Multi Languages](Seeders:10Leechers:405)
Pacyfik odc.5 (2010) [720p.BluRay.x264.DTS] [Lektor PL](Seeders:9Leechers:19)
Pacyfik odc.6 (2010) [720p.BluRay.x264.DTS] [Lektor PL](Seeders:7Leechers:7)
Pacyfik odc.8 (2010) [720p.BluRay.x264.DTS] [Lektor PL](Seeders:2Leechers:1)
Pacyfik odc.9 (2010) [720p.BluRay.x264.DTS] [Lektor PL](Seeders:2Leechers:0)
Pacyfik odc.1 (2010) [720p.BluRay.x264.DTS] [Lektor PL](Seeders:1Leechers:1)
Pacyfik odc.3 (2010) [720p.BluRay.x264.DTS] [Lektor PL](Seeders:1Leechers:2)
Pacyfik odc.7 (2010) [720p.BluRay.x264.DTS] [Lektor PL](Seeders:1Leechers:1)
Pacyfik odc.10 (2010) [720p.BluRay.x264.DTS] [Lektor PL](Seeders:1Leechers:1)



Brak komentarzy...